×

¿Problemas para descargar con Mozilla, EDGE? Deshabilita la opción "Abrir vinculos en una pestaña nueva" tal como lo muestra ésta imagen.

The Girlfriend Experience (2016) Temporada 01 AMZN Web-DL 1080p Latino

381 vistas

Información de The Girlfriend Experience (2016) Temporada 01 AMZN Web-DL 1080p Latino

Datos de la película

  • Calidad: WEBDL
  • Audio: Español Latino E-AC3 5.1 AMAZON - Ingles E-AC3 5.1 AMAZON
  • Subtitulos: Español Latino SRT - Ingles SRT
  • Resolución: 1920x1080p
  • Formato: MKV
  • Codec: H.264
  • Encoder: CinemaniaHD
  • Mediainfo: Clic para Mostrar Datos Ver
  • The Girlfriend Experience S01E01 (2016) AMZN Web-DL 1080p Latino.mkv
    Format                      : Matroska
    Format version              : Version 4
    File size                   : 1.77 GiB
    Duration                    : 27 min 12 s
    Overall bit rate            : 9 305 kb/s
    Movie name                  : CinemaniaHDD.Net
    Encoded date                : UTC 2021-05-04 08:23:58
    Writing application         : mkvmerge v56.1.0 ('My Friend') 64-bit
    Writing library             : libebml v1.4.2 + libmatroska v1.6.4
    Attachments                 : CINEMANIAHD.png

    Video
    ID                          : 1
    Format                      : AVC
    Format/Info                 : Advanced Video Codec
    Format profile              : High@L4
    Format settings             : CABAC / 4 Ref Frames
    Format settings, CABAC      : Yes
    Format settings, Reference  : 4 frames
    Codec ID                    : V_MPEG4/ISO/AVC
    Duration                    : 27 min 12 s
    Bit rate mode               : Constant
    Bit rate                    : 8 023 kb/s
    Nominal bit rate            : 10 000 kb/s
    Width                       : 1 920 pixels
    Height                      : 1 080 pixels
    Display aspect ratio        : 16:9
    Frame rate mode             : Constant
    Frame rate                  : 23.976 (24000/1001) FPS
    Color space                 : YUV
    Chroma subsampling          : 4:2:0
    Bit depth                   : 8 bits
    Scan type                   : Progressive
    Bits/(Pixel*Frame)          : 0.161
    Stream size                 : 1.52 GiB (86%)
    Title                       : WEB HD1080p [CinemaniaHDD]
    Language                    : English
    Default                     : Yes
    Forced                      : No
    Color range                 : Limited
    Color primaries             : BT.709
    Transfer characteristics    : BT.709
    Matrix coefficients         : BT.709

    Audio #1
    ID                          : 2
    Format                      : E-AC-3
    Format/Info                 : Enhanced AC-3
    Commercial name             : Dolby Digital Plus
    Codec ID                    : A_EAC3
    Duration                    : 27 min 12 s
    Bit rate mode               : Constant
    Bit rate                    : 640 kb/s
    Channel(s)                  : 6 channels
    Channel layout              : L R C LFE Ls Rs
    Sampling rate               : 48.0 kHz
    Frame rate                  : 31.250 FPS (1536 SPF)
    Compression mode            : Lossy
    Stream size                 : 125 MiB (7%)
    Title                       : Español Latino [CinemaniaHDD]
    Language                    : Spanish
    Service kind                : Complete Main
    Default                     : Yes
    Forced                      : No

    Audio #2
    ID                          : 3
    Format                      : E-AC-3
    Format/Info                 : Enhanced AC-3
    Commercial name             : Dolby Digital Plus
    Codec ID                    : A_EAC3
    Duration                    : 27 min 12 s
    Bit rate mode               : Constant
    Bit rate                    : 640 kb/s
    Channel(s)                  : 6 channels
    Channel layout              : L R C LFE Ls Rs
    Sampling rate               : 48.0 kHz
    Frame rate                  : 31.250 FPS (1536 SPF)
    Compression mode            : Lossy
    Stream size                 : 125 MiB (7%)
    Title                       : Ingles [CinemaniaHDD]
    Language                    : English
    Service kind                : Complete Main
    Default                     : No
    Forced                      : No

    Text #1
    ID                          : 4
    Format                      : UTF-8
    Codec ID                    : S_TEXT/UTF8
    Codec ID/Info               : UTF-8 Plain Text
    Duration                    : 25 min 51 s
    Bit rate                    : 54 b/s
    Count of elements           : 343
    Stream size                 : 10.3 KiB (0%)
    Title                       : Español-SRT [CinemaniaHDD]
    Language                    : Spanish
    Default                     : No
    Forced                      : No

    Text #2
    ID                          : 5
    Format                      : UTF-8
    Codec ID                    : S_TEXT/UTF8
    Codec ID/Info               : UTF-8 Plain Text
    Duration                    : 25 min 33 s
    Bit rate                    : 69 b/s
    Count of elements           : 480
    Stream size                 : 13.0 KiB (0%)
    Title                       : Ingles-SRT [CinemaniaHDD]
    Language                    : English
    Default                     : No
    Forced                      : No

  • Peso: 1.8 GiB Aprox C/U. | 23.20 GiB Total

Sinopsis

Descargar The Girlfriend Experience (2016) Temporada 01 AMZN Web-DL 1080p Latino. Christine Reade, estudiante de segundo año de la Escuela de Derecho de Chicago obtiene una pasantía en el bufete de abogados de Kirkland & Allen y se esfuerza por equilibrar su carga de trabajo, gastos y clases. Cuando su amiga íntima Avery revela que ha estado trabajando como escort, anima a Christine a acompañarla y la presenta a un amigo de uno de sus clientes, que está buscando una acompañante. Christine finalmente toma la decisión de trabajar como GFE, mujeres que ofrecen «The Girlfriend Experience» (La Experiencia de una Compañera) teniendo relaciones emocionales y sexuales disponibles a través de la transacción de dinero.
Bajo el seudónimo de «Chelsea Rayne», Christine inicialmente trabaja para la jefa de Avery pero a medida que Christine logra trabajar por su cuenta, experimenta dificultades cuando los clientes cruzan las fronteras y también al descubrir un escándalo en Kirkland y Allen.

 

Ficha técnica

Video trailer de la película

Enlaces de descarga

Rip de Bluray

Descargar The Girlfriend Experience (2016) Temporada 01 AMZN Web-DL 1080p Latino




Aportes de DPeliculasHDmega la pass es:dpeliculashdmega.org Aportes de CinemaniaHD la pass es:cinemaniahdd.com
Guardado en : Drama , Series

Películas relacionadas

descargar The Girlfriend Experience (2016) Temporada 01 AMZN Web-DL 1080p Latino WEBDL 1080p gratis, The Girlfriend Experience (2016) Temporada 01 AMZN Web-DL 1080p Latino WEBDL mega 1 link, The Girlfriend Experience (2016) Temporada 01 AMZN Web-DL 1080p Latino WEBDL serie completa, descargar The Girlfriend Experience (2016) Temporada 01 AMZN Web-DL 1080p Latino WEBDL gratis en mega.

The Girlfriend Experience (2016) Temporada 01 AMZN Web-DL 1080p Latino pelicula full hd, The Girlfriend Experience (2016) Temporada 01 AMZN Web-DL 1080p Latino mega latino, The Girlfriend Experience (2016) Temporada 01 AMZN Web-DL 1080p Latino 4k latino, The Girlfriend Experience (2016) Temporada 01 AMZN Web-DL 1080p Latino pelicula completa, The Girlfriend Experience (2016) Temporada 01 AMZN Web-DL 1080p Latino descargar gratis, descargar The Girlfriend Experience (2016) Temporada 01 AMZN Web-DL 1080p Latino pelicula latino, The Girlfriend Experience (2016) Temporada 01 AMZN Web-DL 1080p Latino 1 link mega, The Girlfriend Experience (2016) Temporada 01 AMZN Web-DL 1080p Latino 1 link google drive, The Girlfriend Experience (2016) Temporada 01 AMZN Web-DL 1080p Latino hd 1080p latino.
Comentarios 0