×

¿Problemas para descargar con Mozilla, EDGE? Deshabilita la opción "Abrir vinculos en una pestaña nueva" tal como lo muestra ésta imagen.

The Girlfriend Experience (2009) REMUX 1080p Latino-CMHDD

176 vistas

Información de The Girlfriend Experience (2009) REMUX 1080p Latino-CMHDD

Datos de la película

  • Calidad: Full 1080p
  • Audio: Español Latino AC3 5.1 WEB-DL - Ingles DTS 5.1 BLURAY
  • Subtitulos: Español Latino PGS - Ingles PGS
  • Resolución: 1920x1080p
  • Formato: MKV
  • Codec: H.264
  • Encoder: CinefiloCool
  • Mediainfo: Clic para Mostrar Datos Ver
  • The Girlfriend Experience (2009) REMUX 1080p Latino-CMHDD.mkv
    Format                      : Matroska
    Format version              : Version 4
    File size                   : 16.9 GiB
    Duration                    : 1 h 17 min
    Overall bit rate mode       : Variable
    Overall bit rate            : 31.1 Mb/s
    Movie name                  : The Girlfriend Experience (2009) CinemaniaHDD.Net
    Encoded date                : UTC 2023-10-02 16:59:10
    Writing application         : mkvmerge v56.1.0 ('My Friend') 64-bit
    Writing library             : libebml v1.4.2 + libmatroska v1.6.4
    Attachments                 : CINEMANIAHD.png

    Video
    ID                          : 1
    Format                      : VC-1
    Format profile              : Advanced@L3
    Codec ID                    : V_MS/VFW/FOURCC / WVC1
    Codec ID/Hint               : Microsoft
    Duration                    : 1 h 16 min
    Bit rate                    : 28.1 Mb/s
    Width                       : 1 920 pixels
    Height                      : 1 080 pixels
    Display aspect ratio        : 16:9
    Frame rate mode             : Constant
    Frame rate                  : 23.976 (24000/1001) FPS
    Color space                 : YUV
    Chroma subsampling          : 4:2:0
    Bit depth                   : 8 bits
    Scan type                   : Progressive
    Compression mode            : Lossy
    Bits/(Pixel*Frame)          : 0.565
    Stream size                 : 15.1 GiB (89%)
    Title                       : REMUX HD1080p [CinemaniaHDD]
    Language                    : English
    Default                     : Yes
    Forced                      : Yes

    Audio #1
    ID                          : 2
    Format                      : AC-3
    Format/Info                 : Audio Coding 3
    Commercial name             : Dolby Digital
    Codec ID                    : A_AC3
    Duration                    : 1 h 16 min
    Bit rate mode               : Constant
    Bit rate                    : 384 kb/s
    Channel(s)                  : 6 channels
    Channel layout              : L R C LFE Ls Rs
    Sampling rate               : 48.0 kHz
    Frame rate                  : 31.250 FPS (1536 SPF)
    Compression mode            : Lossy
    Stream size                 : 211 MiB (1%)
    Title                       : Español Latino [CinemaniaHDD]
    Language                    : Spanish
    Service kind                : Complete Main
    Default                     : Yes
    Forced                      : Yes

    Audio #2
    ID                          : 3
    Format                      : DTS XLL
    Format/Info                 : Digital Theater Systems
    Commercial name             : DTS-HD Master Audio
    Codec ID                    : A_DTS
    Duration                    : 1 h 16 min
    Bit rate mode               : Variable
    Bit rate                    : 2 977 kb/s
    Channel(s)                  : 6 channels
    Channel layout              : C L R Ls Rs LFE
    Sampling rate               : 48.0 kHz
    Frame rate                  : 93.750 FPS (512 SPF)
    Bit depth                   : 24 bits
    Compression mode            : Lossless
    Stream size                 : 1.60 GiB (9%)
    Title                       : Ingles [CinemaniaHDD]
    Language                    : English
    Default                     : No
    Forced                      : No

    Text #1
    ID                          : 4
    Format                      : PGS
    Muxing mode                 : zlib
    Codec ID                    : S_HDMV/PGS
    Codec ID/Info               : Picture based subtitle format used on BDs/HD-DVDs
    Duration                    : 1 h 16 min
    Bit rate                    : 64.3 kb/s
    Count of elements           : 2374
    Stream size                 : 35.2 MiB (0%)
    Title                       : Español-PGS [CinemaniaHDD]
    Language                    : Spanish
    Default                     : No
    Forced                      : No

    Text #2
    ID                          : 5
    Format                      : PGS
    Muxing mode                 : zlib
    Codec ID                    : S_HDMV/PGS
    Codec ID/Info               : Picture based subtitle format used on BDs/HD-DVDs
    Duration                    : 1 h 16 min
    Bit rate                    : 63.3 kb/s
    Count of elements           : 2429
    Stream size                 : 34.6 MiB (0%)
    Title                       : Ingles [CinemaniaHDD]
    Language                    : English
    Default                     : No
    Forced                      : No

    Text #3
    ID                          : 6
    Format                      : UTF-8
    Codec ID                    : S_TEXT/UTF8
    Codec ID/Info               : UTF-8 Plain Text
    Duration                    : 6 min 41 s
    Bit rate                    : 1 b/s
    Count of elements           : 2
    Stream size                 : 58.0 Bytes (0%)
    Title                       : Forzados-SRT [CinemaniaHDD]
    Language                    : Spanish
    Default                     : Yes
    Forced                      : Yes

    Text #4
    ID                          : 7
    Format                      : UTF-8
    Codec ID                    : S_TEXT/UTF8
    Codec ID/Info               : UTF-8 Plain Text
    Duration                    : 1 h 12 min
    Bit rate                    : 84 b/s
    Count of elements           : 1170
    Stream size                 : 45.2 KiB (0%)
    Title                       : Español-SRT [CinemaniaHDD]
    Language                    : Spanish
    Default                     : No
    Forced                      : No

    Menu
    00:00:00.000                : Movie Date
    00:04:08.123                : Trainer
    00:12:55.441                : Adapt
    00:25:02.418                : Tim
    00:30:27.451                : The Writer
    00:38:14.501                : Open Relationship
    00:40:17.999                : The Critic
    00:46:57.815                : New Girl
    00:54:31.560                : Handling the Boyfriend
    01:03:09.327                : The Trip
    01:08:46.622                : Iron Door
    01:15:04.917                : Credits

  • Peso: 16.9 GiB

Sinopsis

Descargar The Girlfriend Experience (2009) REMUX 1080p Latino-CMHDD. Cinco días en la vida de Chelsea (interpretada por Sasha Grey, una actriz de cine X en la vida real), una prostituta de lujo de Nueva York que cobra 10.000 dólares por noche. Su novio Chris, que acepta su forma de vida, tiene un negocio que le permite ganar 2.000 dólares por hora.

Ficha técnica

Video trailer de la película

Enlaces de descarga

Rip de Bluray

Descargar The Girlfriend Experience (2009) REMUX 1080p Latino-CMHDD


Aportes de DPeliculasHDmega la pass es:dpeliculashdmega.org Aportes de CinemaniaHD la pass es:cinemaniahdd.com Aportes recientes:cinemaniahdd.net
Guardado en : Drama , Remux

Películas relacionadas

  • La Joven y El Mar (2024) DSNP WEB-DL 1080p Latino

    La Joven y El Mar (2024) DSNP WEB-DL 1080p Latino

    2024
    La Joven y El Mar (2024) DSNP WEB-DL 1080p Latino

    1h 40m 2024

    Descargar La Joven y El Mar (2024) DSNP WEB-DL 1080p Latino. La historia de Trudy Ederle, quien en 1926...

    Director: Joachim Rønning

    Género: Drama

    Actores: Yordan Angelov

  • Vanished Into the Night (2024) NF WEB-DL 1080p Latino

    Vanished Into the Night (2024) NF WEB-DL 1080p Latino

    2024
    Vanished Into the Night (2024) NF WEB-DL 1080p Latino

    1h 33m 2024

    Descargar Vanished Into the Night (2024) NF WEB-DL 1080p Latino. Un padre inmerso en un divorcio problemático...

    Director: Renato De Maria

    Género: Drama

    Actores: Riccardo Scamarcio

  • Goyo (2024) NF WEB-DL 1080p Latino

    Goyo (2024) NF WEB-DL 1080p Latino

    2024
    Goyo (2024) NF WEB-DL 1080p Latino

    1h 47m 2024

    Descargar Goyo (2024) NF WEB-DL 1080p Latino. Goyo es un hombre con Asperger, fanático de Van Gogh,...

    Director: Pablo Discianni

    Género: Comedia

    Actores: Walter Fabian Andrade

  • Inmaculada (2024) REMUX 1080p Latino

    Inmaculada (2024) REMUX 1080p Latino

    2024
    Inmaculada (2024) REMUX 1080p Latino

    1h 29m 2024

    Descargar Inmaculada (2024) REMUX 1080p Latino. Cecilia, una mujer de fe devota, recibe una calurosa...

    Director: Valentina Scuro

    Género: Misterio

    Actores: Viviane Florentine Nicolai

descargar The Girlfriend Experience (2009) REMUX 1080p Latino-CMHDD Full 1080p 1080p gratis, The Girlfriend Experience (2009) REMUX 1080p Latino-CMHDD Full 1080p mega 1 link, The Girlfriend Experience (2009) REMUX 1080p Latino-CMHDD Full 1080p pelicula completa, descargar The Girlfriend Experience (2009) REMUX 1080p Latino-CMHDD Full 1080p gratis en mega.

The Girlfriend Experience (2009) REMUX 1080p Latino-CMHDD pelicula full hd, The Girlfriend Experience (2009) REMUX 1080p Latino-CMHDD mega latino, The Girlfriend Experience (2009) REMUX 1080p Latino-CMHDD 4k latino, The Girlfriend Experience (2009) REMUX 1080p Latino-CMHDD pelicula completa, The Girlfriend Experience (2009) REMUX 1080p Latino-CMHDD descargar gratis, descargar The Girlfriend Experience (2009) REMUX 1080p Latino-CMHDD pelicula latino, The Girlfriend Experience (2009) REMUX 1080p Latino-CMHDD 1 link mega, The Girlfriend Experience (2009) REMUX 1080p Latino-CMHDD 1 link google drive, The Girlfriend Experience (2009) REMUX 1080p Latino-CMHDD hd 1080p latino.
Comentarios 0