La Chica Del Tren (2016) 4K UHD HDR Latino

58 vistas
1 estrella2 estrellas3 estrellas4 estrellas5 estrellas (Ninguna valoración todavía)
Cargando...

Información de La Chica Del Tren (2016) 4K UHD HDR Latino

Datos de la película

  • Calidad: 4K HDR
  • Audio: Español Latino DTS 5.1 BLURAY - Ingles DTS 5.1 BLURAY
  • Subtitulos: Español Latino PGS - Ingles PGS
  • Resolución: 3840x2076p
  • Formato: MKV
  • Codec: HEVC
  • Encoder: CinefiloCool
  • Mediainfo: Clic para Mostrar Datos Ver
  • La Chica Del Tren (2016) UHD HDR Latino-CMHDD.mkv
    Format                      : Matroska
    Format version              : Version 4
    File size                   : 12.8 GiB
    Duration                    : 1 h 52 min
    Overall bit rate            : 16.4 Mb/s
    Movie name                  : The Girl On The Train (2016) CinemaniaHDD.Net
    Encoded date                : UTC 2020-11-28 08:23:34
    Writing application         : mkvmerge v51.0.0 ('I Wish') 64-bit
    Writing library             : libebml v1.4.0 + libmatroska v1.6.2
    Attachments                 : CINEMANIAHD.png

    Video
    ID                          : 1
    Format                      : HEVC
    Format/Info                 : High Efficiency Video Coding
    Format profile              : Main 10@L5.1@High
    HDR format                  : SMPTE ST 2086, HDR10 compatible
    Codec ID                    : V_MPEGH/ISO/HEVC
    Duration                    : 1 h 52 min
    Bit rate                    : 14.1 Mb/s
    Width                       : 3 840 pixels
    Height                      : 2 076 pixels
    Display aspect ratio        : 1.85:1
    Frame rate mode             : Constant
    Frame rate                  : 23.976 (24000/1001) FPS
    Color space                 : YUV
    Chroma subsampling          : 4:2:0 (Type 2)
    Bit depth                   : 10 bits
    Bits/(Pixel*Frame)          : 0.074
    Stream size                 : 11.0 GiB (86%)
    Title                       : 2160p HDR [Bluray]
    Writing library             : x265 2.6+22-ff02513b92c0:[Windows][GCC 6.3.0][64 bit] 10bit
    Encoding settings           : cpuid=1173503 / frame-threads=4 / numa-pools=16 / wpp / no-pmode / no-pme / no-psnr / no-ssim / log-level=2 / input-csp=1 / input-res=3840x2076 / interlace=0 / total-frames=161285 / level-idc=51 / high-tier=1 / uhd-bd=0 / ref=4 / no-allow-non-conformance / repeat-headers / annexb / aud / hrd / info / hash=0 / no-temporal-layers / no-open-gop / min-keyint=1 / keyint=24 / gop-lookahead=0 / bframes=4 / b-adapt=2 / b-pyramid / bframe-bias=0 / rc-lookahead=25 / lookahead-slices=4 / scenecut=40 / radl=0 / no-intra-refresh / ctu=64 / min-cu-size=8 / rect / no-amp / max-tu-size=32 / tu-inter-depth=1 / tu-intra-depth=1 / limit-tu=0 / rdoq-level=2 / dynamic-rd=0.00 / no-ssim-rd / signhide / no-tskip / nr-intra=0 / nr-inter=0 / no-constrained-intra / no-strong-intra-smoothing / max-merge=3 / limit-refs=3 / limit-modes / me=3 / subme=3 / merange=57 / temporal-mvp / weightp / no-weightb / no-analyze-src-pics / deblock=-3:-3 / no-sao / no-sao-non-deblock / rd=4 / no-early-skip / rskip / no-fast-intra / no-tskip-fast / no-cu-lossless / no-b-intra / no-splitrd-skip / rdpenalty=0 / psy-rd=2.00 / psy-rdoq=1.00 / no-rd-refine / no-lossless / cbqpoffs=0 / crqpoffs=0 / rc=crf / crf=17.0 / qcomp=0.60 / qpstep=4 / stats-write=0 / stats-read=0 / vbv-maxrate=160000 / vbv-bufsize=160000 / vbv-init=0.9 / crf-max=0.0 / crf-min=0.0 / ipratio=1.40 / pbratio=1.30 / aq-mode=1 / aq-strength=1.00 / cutree / zone-count=0 / no-strict-cbr / qg-size=32 / no-rc-grain / qpmax=69 / qpmin=0 / no-const-vbv / sar=1 / overscan=0 / videoformat=5 / range=0 / colorprim=9 / transfer=16 / colormatrix=9 / chromaloc=1 / chromaloc-top=2 / chromaloc-bottom=2 / display-window=0 / master-display=G(13250,34500)B(7500,3000)R(34000,16000)WP(15635,16450)L(10000000,50) / max-cll=873,60 / min-luma=0 / max-luma=1023 / log2-max-poc-lsb=8 / vui-timing-info / vui-hrd-info / slices=1 / no-opt-qp-pps / no-opt-ref-list-length-pps / no-multi-pass-opt-rps / scenecut-bias=0.05 / no-opt-cu-delta-qp / no-aq-motion / hdr / hdr-opt / no-dhdr10-opt / analysis-save=(null) / analysis-load=(null) / analysis-reuse-level=5 / scale-factor=0 / refine-intra=0 / refine-inter=0 / refine-mv=0 / no-limit-sao / ctu-info=0 / no-lowpass-dct / refine-mv-type=0 / copy-pic=1
    Default                     : Yes
    Forced                      : No
    Color range                 : Limited
    Color primaries             : BT.2020
    Transfer characteristics    : PQ
    Matrix coefficients         : BT.2020 non-constant
    Mastering display color pri : Display P3
    Mastering display luminance : min: 0.0050 cd/m2, max: 1000 cd/m2
    Maximum Content Light Level : 873 cd/m2
    Maximum Frame-Average Light : 60 cd/m2

    Audio #1
    ID                          : 2
    ID in the original source m : 4354 (0x1102)
    Format                      : DTS
    Format/Info                 : Digital Theater Systems
    Codec ID                    : A_DTS
    Duration                    : 1 h 52 min
    Bit rate mode               : Constant
    Bit rate                    : 768 kb/s
    Channel(s)                  : 6 channels
    Channel layout              : C L R Ls Rs LFE
    Sampling rate               : 48.0 kHz
    Frame rate                  : 93.750 FPS (512 SPF)
    Bit depth                   : 24 bits
    Compression mode            : Lossy
    Stream size                 : 616 MiB (5%)
    Title                       : Español Latino [CinemaniaHDD]
    Language                    : Spanish
    Default                     : Yes
    Forced                      : No
    Original source medium      : Blu-ray

    Audio #2
    ID                          : 3
    Format                      : DTS
    Format/Info                 : Digital Theater Systems
    Codec ID                    : A_DTS
    Duration                    : 1 h 52 min
    Bit rate mode               : Constant
    Bit rate                    : 1 509 kb/s
    Channel(s)                  : 6 channels
    Channel layout              : C L R Ls Rs LFE
    Sampling rate               : 48.0 kHz
    Frame rate                  : 93.750 FPS (512 SPF)
    Bit depth                   : 24 bits
    Compression mode            : Lossy
    Stream size                 : 1.18 GiB (9%)
    Title                       : Ingles [CinemaniaHDD]
    Language                    : English
    Default                     : No
    Forced                      : No

    Text #1
    ID                          : 4
    ID in the original source m : 4611 (0x1203)
    Format                      : PGS
    Muxing mode                 : zlib
    Codec ID                    : S_HDMV/PGS
    Codec ID/Info               : Picture based subtitle format used on BDs/HD-DVDs
    Duration                    : 1 h 45 min
    Bit rate                    : 227 b/s
    Count of elements           : 22
    Stream size                 : 176 KiB (0%)
    Title                       : Sub_Forzados [PGS]
    Language                    : Spanish
    Default                     : No
    Forced                      : No
    Original source medium      : Blu-ray

    Text #2
    ID                          : 5
    Format                      : PGS
    Muxing mode                 : zlib
    Codec ID                    : S_HDMV/PGS
    Codec ID/Info               : Picture based subtitle format used on BDs/HD-DVDs
    Duration                    : 1 h 51 min
    Bit rate                    : 25.0 kb/s
    Count of elements           : 2338
    Stream size                 : 19.9 MiB (0%)
    Title                       : Sub_Esp [PGS]
    Language                    : Spanish
    Default                     : No
    Forced                      : No

    Text #3
    ID                          : 6
    Format                      : PGS
    Muxing mode                 : zlib
    Codec ID                    : S_HDMV/PGS
    Codec ID/Info               : Picture based subtitle format used on BDs/HD-DVDs
    Duration                    : 1 h 45 min
    Bit rate                    : 32.9 kb/s
    Count of elements           : 2642
    Stream size                 : 24.8 MiB (0%)
    Title                       : Sub_Eng [PGS]
    Language                    : English
    Default                     : No
    Forced                      : No

    Text #4
    ID                          : 7
    Format                      : UTF-8
    Codec ID                    : S_TEXT/UTF8
    Codec ID/Info               : UTF-8 Plain Text
    Duration                    : 1 h 15 min
    Bit rate                    : 0 b/s
    Count of elements           : 10
    Stream size                 : 229 Bytes (0%)
    Title                       : Sub_Forzados
    Language                    : Spanish
    Default                     : Yes
    Forced                      : No

    Text #5
    ID                          : 8
    Format                      : UTF-8
    Codec ID                    : S_TEXT/UTF8
    Codec ID/Info               : UTF-8 Plain Text
    Duration                    : 1 h 44 min
    Bit rate                    : 43 b/s
    Count of elements           : 1168
    Stream size                 : 33.6 KiB (0%)
    Title                       : Sub_Esp
    Language                    : Spanish
    Default                     : No
    Forced                      : No

    Menu
    00:00:00.000                : en:00:00:00.000
    00:06:01.778                : en:00:06:01.778
    00:09:29.903                : en:00:09:29.903
    00:18:15.970                : en:00:18:15.970
    00:25:26.150                : en:00:25:26.150
    00:32:04.506                : en:00:32:04.506
    00:37:04.973                : en:00:37:04.973
    00:44:52.315                : en:00:44:52.315
    00:49:22.459                : en:00:49:22.459
    00:55:07.012                : en:00:55:07.012
    00:59:36.031                : en:00:59:36.031
    01:03:34.811                : en:01:03:34.811
    01:09:25.787                : en:01:09:25.787
    01:14:36.430                : en:01:14:36.430
    01:19:08.702                : en:01:19:08.702
    01:23:44.728                : en:01:23:44.728
    01:28:07.491                : en:01:28:07.491
    01:33:49.457                : en:01:33:49.457
    01:38:54.554                : en:01:38:54.554
    01:45:55.182                : en:01:45:55.182

  • Peso: 12.8 GiB

Sinopsis

Descargar La Chica Del Tren (2016) 4K UHD HDR Latino. Rachel (Emily Blunt) es una mujer devastada por su reciente divorcio que dedica cada mañana de camino a su trabajo a fantasear sobre la vida de una pareja aparentemente perfecta que vive en una casa por la que su tren pasa cada día. Pero una mañana Rachel es testigo desde la ventana del tren de un impactante suceso y se ve involucrada en un misterioso y desconcertante caso… Adaptación del best seller homónimo de Paula Hawkins.

Ficha técnica

Video trailer de la película

Enlaces de descarga

Rip de Bluray

Descargar La Chica Del Tren (2016) 4K UHD HDR Latino




Aportes de DPeliculasHDmega la pass es:dpeliculashdmega.org Aportes de CinemaniaHD la pass es:cinemaniahdd.com
Guardado en : 4K HDR , 4K UHD , Crimen , Drama , Misterio , Suspenso

Películas relacionadas

  • Come Play (2020) HD 1080p Latino

    Come Play (2020) HD 1080p Latino

    2020
    Come Play (2020) HD 1080p Latino

    0.0 1h 36m 2020

    Descargar Come Play (2020) HD 1080p Latino. Un niño problemático y su familia se convierten en el objetivo...

    Director: Jacob Chase

    Género: Terror

    Actores: Winslow Fegley

  • Come Play (2020) REMUX 1080p Latino

    Come Play (2020) REMUX 1080p Latino

    2020
    Come Play (2020) REMUX 1080p Latino

    0.0 1h 36m 2020

    Descargar Come Play (2020) REMUX 1080p Latino. Un niño problemático y su familia se convierten en el...

    Director: Jacob Chase

    Género: Terror

    Actores: Winslow Fegley

  • Agentes Vanguard (2020) HD 1080p Latino

    Agentes Vanguard (2020) HD 1080p Latino

    2020
    Agentes Vanguard (2020) HD 1080p Latino

    0.0 1h 47m 2020

    Descargar Agentes Vanguard (2020) HD 1080p Latino. La compañía de seguridad encubierta Vanguard es...

    Director: Stanley Tong

    Género: Acción

    Actores: Zhu Zhengting

  • Agentes Vanguard (2020) PLACEBO Full HD 1080p Latino

    Agentes Vanguard (2020) PLACEBO Full HD 1080p Latino

    2020
    Agentes Vanguard (2020) PLACEBO Full HD 1080p Latino

    0.0 1h 47m 2020

    Descargar Agentes Vanguard (2020) PLACEBO Full HD 1080p Latino. La compañía de seguridad encubierta...

    Director: Stanley Tong

    Género: Acción

    Actores: Zhu Zhengting

  • Agentes Vanguard (2020) REMUX 1080p Latino

    Agentes Vanguard (2020) REMUX 1080p Latino

    2020
    Agentes Vanguard (2020) REMUX 1080p Latino

    5.0 1h 47m 2020

    Descargar Agentes Vanguard (2020) REMUX 1080p Latino. La compañía de seguridad encubierta Vanguard...

    Director: Stanley Tong

    Género: Acción

    Actores: Zhu Zhengting

Comentarios 0