×

¿Problemas para descargar con Mozilla, EDGE? Deshabilita la opción "Abrir vinculos en una pestaña nueva" tal como lo muestra ésta imagen.

La Chica de al Lado (2004) UNRATED Full HD 1080p Latino

366 vistas

Información de La Chica de al Lado (2004) UNRATED Full HD 1080p Latino

Datos de la película

  • Calidad: Full 1080p
  • Audio: Se especifica abajo de la Sinopsis
  • Subtitulos: Español Latino SRT - Ingles SRT
  • Resolución: 1920x1080p
  • Formato: MKV
  • Codec: H.264
  • Encoder: CinefiloCool
  • Mediainfo: Clic para Mostrar Datos Ver
  • La Chica De Al Lado (2004) UNRATED Full HD 1080p Latino-CMHDD.mkv
    Format                      : Matroska
    Format version              : Version 4
    File size                   : 7.40 GiB
    Duration                    : 1 h 49 min
    Overall bit rate            : 9 674 kb/s
    Movie name                  : The Girl Next Door (2004) CinemaniaHDD.Net
    Encoded date                : UTC 2021-02-08 04:49:57
    Writing application         : mkvmerge v51.0.0 ('I Wish') 64-bit
    Writing library             : libebml v1.4.0 + libmatroska v1.6.2
    Attachments                 : CINEMANIAHD.png

    Video
    ID                          : 1
    Format                      : AVC
    Format/Info                 : Advanced Video Codec
    Format profile              : High@L4.1
    Format settings             : CABAC / 4 Ref Frames
    Format settings, CABAC      : Yes
    Format settings, Reference  : 4 frames
    Codec ID                    : V_MPEG4/ISO/AVC
    Duration                    : 1 h 49 min
    Bit rate                    : 7 906 kb/s
    Width                       : 1 920 pixels
    Height                      : 1 080 pixels
    Display aspect ratio        : 16:9
    Frame rate mode             : Constant
    Frame rate                  : 23.976 (24000/1001) FPS
    Color space                 : YUV
    Chroma subsampling          : 4:2:0
    Bit depth                   : 8 bits
    Scan type                   : Progressive
    Bits/(Pixel*Frame)          : 0.159
    Stream size                 : 6.05 GiB (82%)
    Title                       : Full HD1080p [CinemaniaHDD]
    Writing library             : x264 core 157 r2935 545de2f
    Encoding settings           : cabac=1 / ref=4 / deblock=1:0:0 / analyse=0x3:0x133 / me=tesa / subme=11 / psy=1 / psy_rd=1.00:0.00 / mixed_ref=1 / me_range=24 / chroma_me=1 / trellis=2 / 8x8dct=1 / cqm=0 / deadzone=21,11 / fast_pskip=0 / chroma_qp_offset=-2 / threads=24 / lookahead_threads=6 / sliced_threads=0 / nr=0 / decimate=1 / interlaced=0 / bluray_compat=0 / constrained_intra=0 / bframes=16 / b_pyramid=2 / b_adapt=2 / b_bias=0 / direct=3 / weightb=1 / open_gop=0 / weightp=2 / keyint=240 / keyint_min=24 / scenecut=40 / intra_refresh=0 / rc_lookahead=60 / rc=crf / mbtree=1 / crf=20.0 / qcomp=0.60 / qpmin=0 / qpmax=69 / qpstep=4 / vbv_maxrate=62500 / vbv_bufsize=78125 / crf_max=0.0 / nal_hrd=none / filler=0 / ip_ratio=1.40 / aq=1:1.00
    Default                     : Yes
    Forced                      : Yes
    Color range                 : Limited
    Color primaries             : BT.709
    Transfer characteristics    : BT.709
    Matrix coefficients         : BT.709

    Audio #1
    ID                          : 2
    Format                      : AC-3
    Format/Info                 : Audio Coding 3
    Commercial name             : Dolby Digital
    Codec ID                    : A_AC3
    Duration                    : 1 h 49 min
    Bit rate mode               : Constant
    Bit rate                    : 256 kb/s
    Channel(s)                  : 2 channels
    Channel layout              : L R
    Sampling rate               : 48.0 kHz
    Frame rate                  : 31.250 FPS (1536 SPF)
    Compression mode            : Lossy
    Stream size                 : 200 MiB (3%)
    Title                       : Español Latino [CinemaniaHDD]
    Language                    : Spanish
    Service kind                : Complete Main
    Default                     : Yes
    Forced                      : Yes

    Audio #2
    ID                          : 3
    Format                      : DTS
    Format/Info                 : Digital Theater Systems
    Codec ID                    : A_DTS
    Duration                    : 1 h 49 min
    Bit rate mode               : Constant
    Bit rate                    : 1 509 kb/s
    Channel(s)                  : 6 channels
    Channel layout              : C L R Ls Rs LFE
    Sampling rate               : 48.0 kHz
    Frame rate                  : 93.750 FPS (512 SPF)
    Bit depth                   : 24 bits
    Compression mode            : Lossy
    Stream size                 : 1.15 GiB (16%)
    Title                       : Ingles [CinemaniaHDD]
    Language                    : English
    Default                     : No
    Forced                      : No

    Text #1
    ID                          : 4
    Format                      : UTF-8
    Codec ID                    : S_TEXT/UTF8
    Codec ID/Info               : UTF-8 Plain Text
    Duration                    : 1 h 39 min
    Bit rate                    : 0 b/s
    Count of elements           : 18
    Stream size                 : 558 Bytes (0%)
    Title                       : Forzados-SRT [CinemaniaHDD]
    Language                    : Spanish
    Default                     : Yes
    Forced                      : Yes

    Text #2
    ID                          : 5
    Format                      : UTF-8
    Codec ID                    : S_TEXT/UTF8
    Codec ID/Info               : UTF-8 Plain Text
    Duration                    : 1 h 42 min
    Bit rate                    : 48 b/s
    Count of elements           : 1371
    Stream size                 : 36.3 KiB (0%)
    Title                       : Español-SRT [CinemaniaHDD]
    Language                    : Spanish
    Default                     : No
    Forced                      : No

    Text #3
    ID                          : 6
    Format                      : UTF-8
    Codec ID                    : S_TEXT/UTF8
    Codec ID/Info               : UTF-8 Plain Text
    Duration                    : 1 h 43 min
    Bit rate                    : 52 b/s
    Count of elements           : 1269
    Stream size                 : 39.8 KiB (0%)
    Title                       : Ingles-SRT [CinemaniaHDD]
    Language                    : English
    Default                     : No
    Forced                      : No

    Menu
    00:00:00.000                : en:Chapter 01
    00:03:14.819                : en:Chapter 02
    00:04:54.585                : en:Chapter 03
    00:07:25.153                : en:Chapter 04
    00:10:07.189                : en:Chapter 05
    00:15:11.076                : en:Chapter 06
    00:21:10.185                : en:Chapter 07
    00:25:47.254                : en:Chapter 08
    00:29:47.869                : en:Chapter 09
    00:34:42.246                : en:Chapter 10
    00:38:41.277                : en:Chapter 11
    00:45:05.869                : en:Chapter 12
    00:49:22.793                : en:Chapter 13
    00:55:30.076                : en:Chapter 14
    00:58:45.772                : en:Chapter 15
    01:00:52.023                : en:Chapter 16
    01:05:16.454                : en:Chapter 17
    01:08:33.400                : en:Chapter 18
    01:11:21.151                : en:Chapter 19
    01:15:03.373                : en:Chapter 20
    01:18:32.249                : en:Chapter 21
    01:20:56.518                : en:Chapter 22
    01:23:44.227                : en:Chapter 23
    01:27:14.103                : en:Chapter 24
    01:33:22.888                : en:Chapter 25
    01:35:40.901                : en:Chapter 26
    01:40:31.275                : en:Chapter 27
    01:43:49.181                : en:Chapter 28

  • Peso: 7.40 GiB

Sinopsis

Descargar La Chica de al Lado (2004) UNRATED Full HD 1080p Latino. Matthew, un ambicioso joven de un instituto con aspiraciones a ser político en el futuro, se enamora de la chica de sus sueños: la bella y joven vecina de la puerta de al lado. Ambos comienzan un idílico romance, pero un sorprendente descubrimiento pondrá a prueba su relación: ella es un famosa actriz porno.

Audio Español Latino AC3 2.0 Amazon – Ingles DTS 5.1 Bluray

Ficha técnica

Video trailer de la película

Enlaces de descarga

Rip de Bluray

Descargar La Chica de al Lado (2004) UNRATED Full HD 1080p Latino




Aportes de DPeliculasHDmega la pass es:dpeliculashdmega.org Aportes de CinemaniaHD la pass es:cinemaniahdd.com

Películas relacionadas

  • DC Liga De Supermascotas (2022) HD 1080p Latino

    DC Liga De Supermascotas (2022) HD 1080p Latino

    2022
    DC Liga De Supermascotas (2022) HD 1080p Latino

    1h 45m 2022

    Descargar DC Liga De Supermascotas (2022) HD 1080p Latino. Krypto el Superperro y Superman son amigos...

    Director: Sam Levine

    Género: Acción

    Actores: Yvette Nicole Brown

  • Rick and Morty (2022) Temporada 6 WEB-DL 1080p Latino

    Rick and Morty (2022) Temporada 6 WEB-DL 1080p Latino

    2013
    Rick and Morty (2022) Temporada 6 WEB-DL 1080p Latino

    0h 22m 2013

    Comedia animada que narra las aventuras de un científico loco Rick Sánchez, que regresa después de...

    Director: Justin Roiland

    Género: Action & Adventure

    Actores: Spencer Grammer

  • Tremors (1990) REMUX 4K HDR Latino – CMHDD

    Tremors (1990) REMUX 4K HDR Latino – CMHDD

    1990
    Tremors (1990) REMUX 4K HDR Latino – CMHDD

    1h 35m 1990

    En Perfección, un pequeño pueblo al borde del desierto de Nevada, algo parece suceder debajo de la...

    Director: Susan Bierbaum

    Género: Acción

    Actores: Victor Wong

descargar La Chica de al Lado (2004) UNRATED Full HD 1080p Latino Full 1080p 1080p gratis, La Chica de al Lado (2004) UNRATED Full HD 1080p Latino Full 1080p mega 1 link, La Chica de al Lado (2004) UNRATED Full HD 1080p Latino Full 1080p pelicula completa, descargar La Chica de al Lado (2004) UNRATED Full HD 1080p Latino Full 1080p gratis en mega.

La Chica de al Lado (2004) UNRATED Full HD 1080p Latino pelicula full hd, La Chica de al Lado (2004) UNRATED Full HD 1080p Latino mega latino, La Chica de al Lado (2004) UNRATED Full HD 1080p Latino 4k latino, La Chica de al Lado (2004) UNRATED Full HD 1080p Latino pelicula completa, La Chica de al Lado (2004) UNRATED Full HD 1080p Latino descargar gratis, descargar La Chica de al Lado (2004) UNRATED Full HD 1080p Latino pelicula latino, La Chica de al Lado (2004) UNRATED Full HD 1080p Latino 1 link mega, La Chica de al Lado (2004) UNRATED Full HD 1080p Latino 1 link google drive, La Chica de al Lado (2004) UNRATED Full HD 1080p Latino hd 1080p latino.
Comentarios 0