×

¿Problemas para descargar con Mozilla, EDGE? Deshabilita la opción "Abrir vinculos en una pestaña nueva" tal como lo muestra ésta imagen.

The Gentlemen: Los Señores de la Mafia (2020) AMZN Web-DL 1080p Latino

1.232 vistas

Información de The Gentlemen: Los Señores de la Mafia (2020) AMZN Web-DL 1080p Latino

Datos de la película

  • Calidad: WEBDL
  • Audio: Se especifica abajo de la Sinopsis
  • Subtitulos: FORZADOS SRT
  • Resolución: 1920x800p
  • Formato: MKV
  • Codec: H.264
  • Encoder: CinefiloCool
  • Mediainfo: Clic para Mostrar Datos Ver
  • The Gentlemen (2020) AMZN Web-DL 1080p Latino-CMHDD.mkv
    Format                      : Matroska
    Format version              : Version 4
    File size                   : 7.96 GiB
    Duration                    : 1 h 53 min
    Overall bit rate            : 10.1 Mb/s
    Movie name                  : The Gentlemen (2020) CinemaniaHDD.Net
    Encoded date                : UTC 2020-03-25 01:54:49
    Writing application         : mkvmerge v42.0.0 ('Overtime') 64-bit
    Writing library             : libebml v1.3.10 + libmatroska v1.5.2
    Attachments                 : CINEMANIAHD.png

    Video
    ID                          : 1
    Format                      : AVC
    Format/Info                 : Advanced Video Codec
    Format profile              : High@L4
    Format settings             : CABAC / 4 Ref Frames
    Format settings, CABAC      : Yes
    Format settings, ReFrames   : 4 frames
    Codec ID                    : V_MPEG4/ISO/AVC
    Duration                    : 1 h 53 min
    Bit rate mode               : Constant
    Bit rate                    : 9 165 kb/s
    Nominal bit rate            : 10 000 kb/s
    Width                       : 1 920 pixels
    Height                      : 800 pixels
    Display aspect ratio        : 2.40:1
    Frame rate mode             : Constant
    Frame rate                  : 23.976 (24000/1001) FPS
    Color space                 : YUV
    Chroma subsampling          : 4:2:0
    Bit depth                   : 8 bits
    Scan type                   : Progressive
    Bits/(Pixel*Frame)          : 0.249
    Stream size                 : 7.25 GiB (91%)
    Title                       : Web HD1080p [CinemaniaHDD]
    Default                     : Yes
    Forced                      : Yes
    Color range                 : Limited
    Color primaries             : BT.709
    Transfer characteristics    : BT.709
    Matrix coefficients         : BT.709

    Audio #1
    ID                          : 2
    Format                      : AC-3
    Format/Info                 : Audio Coding 3
    Commercial name             : Dolby Digital
    Codec ID                    : A_AC3
    Duration                    : 1 h 53 min
    Bit rate mode               : Constant
    Bit rate                    : 256 kb/s
    Channel(s)                  : 2 channels
    Channel layout              : L R
    Sampling rate               : 48.0 kHz
    Frame rate                  : 31.250 FPS (1536 SPF)
    Bit depth                   : 16 bits
    Compression mode            : Lossy
    Stream size                 : 207 MiB (3%)
    Title                       : Español Latino [CinemaniaHDD]
    Language                    : Spanish
    Service kind                : Complete Main
    Default                     : Yes
    Forced                      : Yes

    Audio #2
    ID                          : 3
    Format                      : E-AC-3
    Format/Info                 : Enhanced AC-3
    Commercial name             : Dolby Digital Plus
    Codec ID                    : A_EAC3
    Duration                    : 1 h 53 min
    Bit rate mode               : Constant
    Bit rate                    : 640 kb/s
    Channel(s)                  : 6 channels
    Channel layout              : L R C LFE Ls Rs
    Sampling rate               : 48.0 kHz
    Frame rate                  : 31.250 FPS (1536 SPF)
    Compression mode            : Lossy
    Stream size                 : 518 MiB (6%)
    Title                       : Ingles [CinemaniaHDD]
    Language                    : English
    Service kind                : Complete Main
    Default                     : No
    Forced                      : No

    Text #1
    ID                          : 4
    Format                      : UTF-8
    Codec ID                    : S_TEXT/UTF8
    Codec ID/Info               : UTF-8 Plain Text
    Duration                    : 1 h 18 min
    Bit rate                    : 0 b/s
    Count of elements           : 5
    Stream size                 : 94.0 Bytes (0%)
    Title                       : Forzados-SRT [CinemaniaHDD]
    Language                    : Spanish
    Default                     : Yes
    Forced                      : Yes

    Text #2
    ID                          : 5
    Format                      : UTF-8
    Codec ID                    : S_TEXT/UTF8
    Codec ID/Info               : UTF-8 Plain Text
    Duration                    : 1 h 47 min
    Bit rate                    : 84 b/s
    Count of elements           : 1812
    Stream size                 : 67.0 KiB (0%)
    Title                       : Ingles-SRT [CinemaniaHDD]
    Language                    : English
    Default                     : No
    Forced                      : No

    Menu
    00:00:00.000                : en:Studio Logo
    00:00:38.000                : en:Scene 2
    00:01:00.000                : en:Opening Credits
    00:01:19.000                : en:Scene 4
    00:02:14.000                : en:Title Sequence
    00:04:03.000                : en:Scene 6
    00:13:19.000                : en:Scene 7
    00:22:08.000                : en:Scene 8
    00:28:52.000                : en:Scene 9
    00:35:29.000                : en:Scene 10
    00:39:20.000                : en:Scene 11
    00:43:52.000                : en:Scene 12
    00:55:51.000                : en:Scene 13
    01:06:29.000                : en:Scene 14
    01:11:48.000                : en:Scene 15
    01:29:00.000                : en:Scene 16
    01:38:51.000                : en:Scene 17
    01:48:14.000                : en:End Credits

  • Peso: 7.96 GiB

Sinopsis

Descargar The Gentlemen: Los Señores de la Mafia (2020) AMZN Web-DL 1080p Latino. Un capo de la droga con un marcado estilo británico intenta vender su imperio a una dinastía de multimillonarios procedentes de Oklahoma.

Audio Español Latino AC3 2.0 Itunes – Ingles EAC3 5.1 AMZN

Ficha técnica

Video trailer de la película

Enlaces de descarga

Rip de Bluray

Descargar The Gentlemen: Los Señores de la Mafia (2020) AMZN Web-DL 1080p Latino




Aportes de DPeliculasHDmega la pass es:dpeliculashdmega.org Aportes de CinemaniaHD la pass es:cinemaniahdd.com
Guardado en : Acción , Comedia , Crimen

Películas relacionadas

descargar The Gentlemen: Los Señores de la Mafia (2020) AMZN Web-DL 1080p Latino WEBDL 1080p gratis, The Gentlemen: Los Señores de la Mafia (2020) AMZN Web-DL 1080p Latino WEBDL mega 1 link, The Gentlemen: Los Señores de la Mafia (2020) AMZN Web-DL 1080p Latino WEBDL pelicula completa, descargar The Gentlemen: Los Señores de la Mafia (2020) AMZN Web-DL 1080p Latino WEBDL gratis en mega.

The Gentlemen: Los Señores de la Mafia (2020) AMZN Web-DL 1080p Latino pelicula full hd, The Gentlemen: Los Señores de la Mafia (2020) AMZN Web-DL 1080p Latino mega latino, The Gentlemen: Los Señores de la Mafia (2020) AMZN Web-DL 1080p Latino 4k latino, The Gentlemen: Los Señores de la Mafia (2020) AMZN Web-DL 1080p Latino pelicula completa, The Gentlemen: Los Señores de la Mafia (2020) AMZN Web-DL 1080p Latino descargar gratis, descargar The Gentlemen: Los Señores de la Mafia (2020) AMZN Web-DL 1080p Latino pelicula latino, The Gentlemen: Los Señores de la Mafia (2020) AMZN Web-DL 1080p Latino 1 link mega, The Gentlemen: Los Señores de la Mafia (2020) AMZN Web-DL 1080p Latino 1 link google drive, The Gentlemen: Los Señores de la Mafia (2020) AMZN Web-DL 1080p Latino hd 1080p latino.
Comentarios 0