×

¿Problemas para descargar con Mozilla, EDGE? Deshabilita la opción "Abrir vinculos en una pestaña nueva" tal como lo muestra ésta imagen.

Los Caballeros (2019) REMUX 1080p Latino

608 vistas

Información de Los Caballeros (2019) REMUX 1080p Latino

Datos de la película

  • Calidad: Full 1080p
  • Audio: Se especifica abajo de la Sinopsis
  • Subtitulos: Español Latino PGS - Ingles PGS
  • Resolución: 1920x1080p
  • Formato: MKV
  • Codec: H.264
  • Encoder: CinefiloCool
  • Mediainfo: Clic para Mostrar Datos Ver
  • Los Caballeros (2019) REMUX 1080p Latino-CMHDD.mkv
    Format                      : Matroska
    Format version              : Version 4
    File size                   : 28.9 GiB
    Duration                    : 1 h 53 min
    Overall bit rate mode       : Variable
    Overall bit rate            : 36.4 Mb/s
    Movie name                  : The Gentlemen (2019) CinemaniaHDD.Net
    Encoded date                : UTC 2020-04-11 20:24:26
    Writing application         : mkvmerge v42.0.0 ('Overtime') 64-bit
    Writing library             : libebml v1.3.10 + libmatroska v1.5.2
    Attachments                 : CINEMANIAHD.png

    Video
    ID                          : 1
    Format                      : AVC
    Format/Info                 : Advanced Video Codec
    Format profile              : High@L4.1
    Format settings             : CABAC / 4 Ref Frames
    Format settings, CABAC      : Yes
    Format settings, ReFrames   : 4 frames
    Codec ID                    : V_MPEG4/ISO/AVC
    Duration                    : 1 h 53 min
    Bit rate mode               : Variable
    Bit rate                    : 31.6 Mb/s
    Maximum bit rate            : 35.0 Mb/s
    Width                       : 1 920 pixels
    Height                      : 1 080 pixels
    Display aspect ratio        : 16:9
    Frame rate mode             : Constant
    Frame rate                  : 23.976 (24000/1001) FPS
    Color space                 : YUV
    Chroma subsampling          : 4:2:0
    Bit depth                   : 8 bits
    Scan type                   : Progressive
    Bits/(Pixel*Frame)          : 0.636
    Stream size                 : 25.1 GiB (87%)
    Title                       : Full HD1080p [REMUX]
    Default                     : Yes
    Forced                      : Yes

    Audio #1
    ID                          : 2
    Format                      : AC-3
    Format/Info                 : Audio Coding 3
    Commercial name             : Dolby Digital
    Codec ID                    : A_AC3
    Duration                    : 1 h 53 min
    Bit rate mode               : Constant
    Bit rate                    : 256 kb/s
    Channel(s)                  : 2 channels
    Channel layout              : L R
    Sampling rate               : 48.0 kHz
    Frame rate                  : 31.250 FPS (1536 SPF)
    Bit depth                   : 16 bits
    Compression mode            : Lossy
    Stream size                 : 208 MiB (1%)
    Title                       : AC3_2.0_Web_Esp
    Language                    : Spanish
    Service kind                : Complete Main
    Default                     : Yes
    Forced                      : Yes

    Audio #2
    ID                          : 3
    Format                      : MLP FBA 16-ch
    Format/Info                 : Meridian Lossless Packing FBA with 16-channel presentation
    Commercial name             : Dolby TrueHD with Dolby Atmos
    Codec ID                    : A_TRUEHD
    Duration                    : 1 h 53 min
    Bit rate mode               : Variable
    Bit rate                    : 3 944 kb/s
    Maximum bit rate            : 8 085 kb/s
    Channel(s)                  : 8 channels
    Channel layout              : L R C LFE Ls Rs Lb Rb
    Sampling rate               : 48.0 kHz
    Frame rate                  : 1 200.000 FPS (40 SPF)
    Compression mode            : Lossless
    Stream size                 : 3.13 GiB (11%)
    Title                       : THD_7.1_Bluray_Eng
    Language                    : English
    Default                     : No
    Forced                      : No
    Number of dynamic objects   : 11
    Bed channel count           : 1 channel
    Bed channel configuration   : LFE

    Audio #3
    ID                          : 4
    Format                      : AC-3
    Format/Info                 : Audio Coding 3
    Commercial name             : Dolby Digital
    Codec ID                    : A_AC3
    Duration                    : 1 h 53 min
    Bit rate mode               : Constant
    Bit rate                    : 448 kb/s
    Channel(s)                  : 6 channels
    Channel layout              : L R C LFE Ls Rs
    Sampling rate               : 48.0 kHz
    Frame rate                  : 31.250 FPS (1536 SPF)
    Bit depth                   : 16 bits
    Compression mode            : Lossy
    Stream size                 : 364 MiB (1%)
    Title                       : AC3_5.1_Bluray_Eng
    Language                    : English
    Service kind                : Complete Main
    Default                     : No
    Forced                      : No

    Text #1
    ID                          : 5
    Format                      : PGS
    Muxing mode                 : zlib
    Codec ID                    : S_HDMV/PGS
    Codec ID/Info               : Picture based subtitle format used on BDs/HD-DVDs
    Duration                    : 1 h 52 min
    Bit rate                    : 51.4 kb/s
    Count of elements           : 3524
    Stream size                 : 41.4 MiB (0%)
    Title                       : Sub_Esp [PGS]
    Language                    : Spanish
    Default                     : No
    Forced                      : No

    Text #2
    ID                          : 6
    Format                      : PGS
    Muxing mode                 : zlib
    Codec ID                    : S_HDMV/PGS
    Codec ID/Info               : Picture based subtitle format used on BDs/HD-DVDs
    Duration                    : 1 h 50 min
    Bit rate                    : 65.8 kb/s
    Count of elements           : 4248
    Stream size                 : 52.2 MiB (0%)
    Title                       : Sub_Eng [PGS]
    Language                    : English
    Default                     : No
    Forced                      : No

    Text #3
    ID                          : 7
    Format                      : UTF-8
    Codec ID                    : S_TEXT/UTF8
    Codec ID/Info               : UTF-8 Plain Text
    Duration                    : 1 h 43 min
    Bit rate                    : 0 b/s
    Count of elements           : 18
    Stream size                 : 467 Bytes (0%)
    Title                       : Sub_Forzados
    Language                    : Spanish
    Default                     : Yes
    Forced                      : Yes

    Text #4
    ID                          : 8
    Format                      : UTF-8
    Codec ID                    : S_TEXT/UTF8
    Codec ID/Info               : UTF-8 Plain Text
    Duration                    : 1 h 47 min
    Bit rate                    : 79 b/s
    Count of elements           : 1759
    Stream size                 : 62.4 KiB (0%)
    Title                       : Sub_Esp
    Language                    : Spanish
    Default                     : No
    Forced                      : No

    Menu
    00:00:00.000                : en:Chapter 01
    00:04:27.100                : en:Chapter 02
    00:08:16.413                : en:Chapter 03
    00:13:42.780                : en:Chapter 04
    00:19:21.494                : en:Chapter 05
    00:24:49.988                : en:Chapter 06
    00:30:23.530                : en:Chapter 07
    00:37:17.944                : en:Chapter 08
    00:41:55.430                : en:Chapter 09
    00:48:38.874                : en:Chapter 10
    00:56:51.199                : en:Chapter 11
    01:03:34.102                : en:Chapter 12
    01:08:45.038                : en:Chapter 13
    01:14:18.204                : en:Chapter 14
    01:19:05.991                : en:Chapter 15
    01:24:30.023                : en:Chapter 16
    01:29:24.776                : en:Chapter 17
    01:34:21.114                : en:Chapter 18
    01:40:11.130                : en:Chapter 19
    01:48:37.511                : en:Chapter 20

  • Peso: 28.9 GiB

Sinopsis

Descargar Los Caballeros (2019) REMUX 1080p Latino. Un capo de la droga con un marcado estilo británico intenta vender su imperio a una dinastía de multimillonarios procedentes de Oklahoma.

Audio Español Latino AC3 2.0 WebDL – Ingles TrueHD 7.1 + AC3 5.1 Bluray

Ficha técnica

Video trailer de la película

Enlaces de descarga

Rip de Bluray

Descargar Los Caballeros (2019) REMUX 1080p Latino




Aportes de DPeliculasHDmega la pass es:dpeliculashdmega.org Aportes de CinemaniaHD la pass es:cinemaniahdd.com
Guardado en : Acción , Comedia , Crimen , Remux

Películas relacionadas

descargar Los Caballeros (2019) REMUX 1080p Latino Full 1080p 1080p gratis, Los Caballeros (2019) REMUX 1080p Latino Full 1080p mega 1 link, Los Caballeros (2019) REMUX 1080p Latino Full 1080p pelicula completa, descargar Los Caballeros (2019) REMUX 1080p Latino Full 1080p gratis en mega.

Los Caballeros (2019) REMUX 1080p Latino pelicula full hd, Los Caballeros (2019) REMUX 1080p Latino mega latino, Los Caballeros (2019) REMUX 1080p Latino 4k latino, Los Caballeros (2019) REMUX 1080p Latino pelicula completa, Los Caballeros (2019) REMUX 1080p Latino descargar gratis, descargar Los Caballeros (2019) REMUX 1080p Latino pelicula latino, Los Caballeros (2019) REMUX 1080p Latino 1 link mega, Los Caballeros (2019) REMUX 1080p Latino 1 link google drive, Los Caballeros (2019) REMUX 1080p Latino hd 1080p latino.
Comentarios 0