×

¿Problemas para descargar con Mozilla, EDGE? Deshabilita la opción "Abrir vinculos en una pestaña nueva" tal como lo muestra ésta imagen.

The Gangster, the Cop, the Devil (2019) REMUX 1080p Latino

371 vistas

Información de The Gangster, the Cop, the Devil (2019) REMUX 1080p Latino

Datos de la película

  • Calidad: Full 1080p
  • Audio: Se especifica abajo de la Sinopsis
  • Subtitulos: Español Latino SRT- FORZADOS SRT
  • Resolución: 1920x1080p
  • Formato: MKV
  • Codec: H.264
  • Encoder: CinefiloCool
  • Mediainfo: Clic para Mostrar Datos Ver
  • The Gangster, The Cop, The Devil (2019) REMUX 1080p Latino-CMHDD.mkv
    Format                      : Matroska
    Format version              : Version 4
    File size                   : 16.7 GiB
    Duration                    : 1 h 49 min
    Overall bit rate mode       : Variable
    Overall bit rate            : 21.7 Mb/s
    Movie name                  : CinemaniaHDD.Net
    Encoded date                : UTC 2019-12-10 17:50:57
    Writing application         : mkvmerge v38.0.0 ('The Silent Type') 64-bit
    Writing library             : libebml v1.3.9 + libmatroska v1.5.2
    Attachments                 : CINEMANIAHD.png

    Video
    ID                          : 1
    Format                      : AVC
    Format/Info                 : Advanced Video Codec
    Format profile              : High@L4.1
    Format settings             : CABAC / 4 Ref Frames
    Format settings, CABAC      : Yes
    Format settings, ReFrames   : 4 frames
    Codec ID                    : V_MPEG4/ISO/AVC
    Duration                    : 1 h 49 min
    Bit rate mode               : Variable
    Bit rate                    : 19.2 Mb/s
    Maximum bit rate            : 20.0 Mb/s
    Width                       : 1 920 pixels
    Height                      : 1 080 pixels
    Display aspect ratio        : 16:9
    Frame rate mode             : Constant
    Frame rate                  : 24.000 FPS
    Color space                 : YUV
    Chroma subsampling          : 4:2:0
    Bit depth                   : 8 bits
    Scan type                   : Progressive
    Bits/(Pixel*Frame)          : 0.385
    Stream size                 : 14.7 GiB (88%)
    Title                       : Full HD1080p [REMUX]
    Default                     : Yes
    Forced                      : Yes

    Audio #1
    ID                          : 2
    Format                      : AC-3
    Format/Info                 : Audio Coding 3
    Commercial name             : Dolby Digital
    Codec ID                    : A_AC3
    Duration                    : 1 h 49 min
    Bit rate mode               : Constant
    Bit rate                    : 256 kb/s
    Channel(s)                  : 2 channels
    Channel layout              : L R
    Sampling rate               : 48.0 kHz
    Frame rate                  : 31.250 FPS (1536 SPF)
    Bit depth                   : 16 bits
    Compression mode            : Lossy
    Stream size                 : 201 MiB (1%)
    Title                       : AC3_2.0_Capt_Esp
    Language                    : Spanish
    Service kind                : Complete Main
    Default                     : Yes
    Forced                      : Yes

    Audio #2
    ID                          : 3
    Format                      : DTS XLL
    Format/Info                 : Digital Theater Systems
    Commercial name             : DTS-HD Master Audio
    Codec ID                    : A_DTS
    Duration                    : 1 h 49 min
    Bit rate mode               : Variable
    Bit rate                    : 2 260 kb/s
    Channel(s)                  : 6 channels
    Channel layout              : C L R Ls Rs LFE
    Sampling rate               : 48.0 kHz
    Frame rate                  : 93.750 FPS (512 SPF)
    Bit depth                   : 16 bits
    Compression mode            : Lossless
    Stream size                 : 1.74 GiB (10%)
    Title                       : DTS-HD_5.1_Bluray_Kor
    Language                    : Korean
    Default                     : No
    Forced                      : No

    Text #1
    ID                          : 4
    Format                      : UTF-8
    Codec ID                    : S_TEXT/UTF8
    Codec ID/Info               : UTF-8 Plain Text
    Duration                    : 9 s 977 ms
    Bit rate                    : 112 b/s
    Count of elements           : 3
    Stream size                 : 140 Bytes (0%)
    Title                       : Sub_Forzados
    Language                    : Spanish
    Default                     : Yes
    Forced                      : Yes

    Text #2
    ID                          : 5
    Format                      : UTF-8
    Codec ID                    : S_TEXT/UTF8
    Codec ID/Info               : UTF-8 Plain Text
    Duration                    : 1 h 44 min
    Bit rate                    : 52 b/s
    Count of elements           : 1265
    Stream size                 : 39.9 KiB (0%)
    Title                       : Sub_Esp
    Language                    : Spanish
    Default                     : No
    Forced                      : No

    Menu
    00:00:00.000                : en:Chapter 01
    00:09:32.875                : en:Chapter 02
    00:18:25.750                : en:Chapter 03
    00:26:37.458                : en:Chapter 04
    00:37:36.625                : en:Chapter 05
    00:47:04.458                : en:Chapter 06
    01:01:17.083                : en:Chapter 07
    01:11:17.125                : en:Chapter 08
    01:20:57.583                : en:Chapter 09
    01:32:52.833                : en:Chapter 10
    01:45:46.500                : en:Chapter 11
    01:49:53.916                : en:Chapter 12

  • Peso: 16.7 GiB

Sinopsis

Descargar The Gangster, the Cop, the Devil (2019) REMUX 1080p Latino. Después de apenas sobrevivir a un ataque violento de un esquivo asesino en serie, el jefe del crimen Jang Dong-su se encuentra formando una asociación poco probable con el detective local Jung Tae-seok para atrapar al sádico asesino simplemente conocido como «K».

Audio Español Latino AC 2.0 Capturado – Koreano DTS-HD 5.1 Bluray

Ficha técnica

  • Titulo original: 악인전
  • Fecha de lanzamiento: 15-05-2019 (South Korea, United States of America)
  • Director: Lee Won-tae
  • Género: Acción, Crimen, Remux

Video trailer de la película

Enlaces de descarga

Rip de Bluray

Descargar The Gangster, the Cop, the Devil (2019) REMUX 1080p Latino




Aportes de DPeliculasHDmega la pass es:dpeliculashdmega.org Aportes de CinemaniaHD la pass es:cinemaniahdd.com
Guardado en : Acción , Crimen , Remux

Películas relacionadas

  • El Cuartel Secreto (2022) WEB-DL 4K UHD HDR Latino

    El Cuartel Secreto (2022) WEB-DL 4K UHD HDR Latino

    2022
    El Cuartel Secreto (2022) WEB-DL 4K UHD HDR Latino

    1h 44m 2022

    Descargar El Cuartel Secreto (2022) WEB-DL 4K UHD HDR Latino. Mientras pasan el rato después de la escuela,...

    Director: Henry Joost

    Género: 4K HDR

    Actores: Zeb Slone

  • El Cuartel Secreto (2022) WEB-DL 1080p Latino

    El Cuartel Secreto (2022) WEB-DL 1080p Latino

    2022
    El Cuartel Secreto (2022) WEB-DL 1080p Latino

    1h 44m 2022

    Descargar El Cuartel Secreto (2022) WEB-DL 1080p Latino. Mientras pasan el rato después de la escuela,...

    Director: Henry Joost

    Género: Acción

    Actores: Zeb Slone

  • Men in Black (1997) REMUX 4K HDR Latino – CMHDD

    Men in Black (1997) REMUX 4K HDR Latino – CMHDD

    1997
    Men in Black (1997) REMUX 4K HDR Latino – CMHDD

    1h 34m 1997

    Durante muchos años los extraterrestres han vivido en la Tierra, mezclados con los humanos, sin que...

    Director: Tyrone S. Walker

    Género: Acción

    Actores: Willie C. Carpenter

  • Borrego: Sal Del Camino (2022) HD 1080p Latino

    Borrego: Sal Del Camino (2022) HD 1080p Latino

    2022
    Borrego: Sal Del Camino (2022) HD 1080p Latino

    1h 42m 2022

    Descargar Borrego: Sal Del Camino (2022) HD 1080p Latino. Una joven botánica se traslada a un pequeño...

    Director: Jesse Harris

    Género: Crimen

    Actores: Olivia Trujillo

descargar The Gangster, the Cop, the Devil (2019) REMUX 1080p Latino Full 1080p 1080p gratis, The Gangster, the Cop, the Devil (2019) REMUX 1080p Latino Full 1080p mega 1 link, The Gangster, the Cop, the Devil (2019) REMUX 1080p Latino Full 1080p pelicula completa, descargar The Gangster, the Cop, the Devil (2019) REMUX 1080p Latino Full 1080p gratis en mega.

The Gangster, the Cop, the Devil (2019) REMUX 1080p Latino pelicula full hd, The Gangster, the Cop, the Devil (2019) REMUX 1080p Latino mega latino, The Gangster, the Cop, the Devil (2019) REMUX 1080p Latino 4k latino, The Gangster, the Cop, the Devil (2019) REMUX 1080p Latino pelicula completa, The Gangster, the Cop, the Devil (2019) REMUX 1080p Latino descargar gratis, descargar The Gangster, the Cop, the Devil (2019) REMUX 1080p Latino pelicula latino, The Gangster, the Cop, the Devil (2019) REMUX 1080p Latino 1 link mega, The Gangster, the Cop, the Devil (2019) REMUX 1080p Latino 1 link google drive, The Gangster, the Cop, the Devil (2019) REMUX 1080p Latino hd 1080p latino.
Comentarios 0