×

¿Problemas para descargar con Mozilla, EDGE? Deshabilita la opción "Abrir vinculos en una pestaña nueva" tal como lo muestra ésta imagen.

The game (1997) [Open Matte] WEB-DL 1080p Latino

285 vistas

Información de The game (1997) [Open Matte] WEB-DL 1080p Latino

Datos de la película

  • Calidad: 1080p
  • Audio: Español Latino AC3 5.1 WEB-DL - Ingles AC3 5.1 WEB-DL
  • Subtitulos: Español Latino SRT- FORZADOS SRT
  • Resolución: 1920x1080
  • Formato: MKV
  • Codec: H.264
  • Encoder: cinemaniahdd
  • Mediainfo: Clic para Mostrar Datos Ver
  • The game (1997) [Open Matte] WEB-DL 1080p Latino [CNMNHDD].mkv
    Format                      : Matroska
    Format version              : Version 4
    File size                   : 4.80 GiB
    Duration                    : 2 h 8 min
    Overall bit rate            : 5 342 kb/s
    Movie name                  : The Game (1997) Open Matte [1080p] - CinemaniaHDD.Net
    Encoded date                : UTC 2023-04-06 01:25:25
    Writing application         : mkvmerge v56.1.0 ('My Friend') 64-bit
    Writing library             : libebml v1.4.2 + libmatroska v1.6.4

    Video
    ID                          : 1
    Format                      : AVC
    Format/Info                 : Advanced Video Codec
    Format profile              : High@L4
    Format settings             : CABAC / 4 Ref Frames
    Format settings, CABAC      : Yes
    Format settings, Reference  : 4 frames
    Codec ID                    : V_MPEG4/ISO/AVC
    Duration                    : 2 h 8 min
    Bit rate                    : 3 419 kb/s
    Width                       : 1 920 pixels
    Height                      : 1 080 pixels
    Display aspect ratio        : 16:9
    Frame rate mode             : Constant
    Frame rate                  : 23.976 (24000/1001) FPS
    Color space                 : YUV
    Chroma subsampling          : 4:2:0
    Bit depth                   : 8 bits
    Scan type                   : Progressive
    Bits/(Pixel*Frame)          : 0.069
    Stream size                 : 3.07 GiB (64%)
    Title                       : CinemaniaHDD
    Default                     : Yes
    Forced                      : No

    Audio #1
    ID                          : 2
    Format                      : AC-3
    Format/Info                 : Audio Coding 3
    Commercial name             : Dolby Digital
    Codec ID                    : A_AC3
    Duration                    : 2 h 8 min
    Bit rate mode               : Constant
    Bit rate                    : 640 kb/s
    Channel(s)                  : 6 channels
    Channel layout              : L R C LFE Ls Rs
    Sampling rate               : 48.0 kHz
    Frame rate                  : 31.250 FPS (1536 SPF)
    Compression mode            : Lossy
    Stream size                 : 589 MiB (12%)
    Title                       : Español Latino [CinemaniaHDD]
    Language                    : Spanish
    Service kind                : Complete Main
    Default                     : Yes
    Forced                      : No

    Audio #2
    ID                          : 3
    Format                      : E-AC-3
    Format/Info                 : Enhanced AC-3
    Commercial name             : Dolby Digital Plus
    Codec ID                    : A_EAC3
    Duration                    : 2 h 8 min
    Bit rate mode               : Constant
    Bit rate                    : 640 kb/s
    Channel(s)                  : 6 channels
    Channel layout              : L R C LFE Ls Rs
    Sampling rate               : 48.0 kHz
    Frame rate                  : 31.250 FPS (1536 SPF)
    Compression mode            : Lossy
    Stream size                 : 589 MiB (12%)
    Title                       : Español Latino / E-AC3 [CinemaniaHDD]
    Language                    : Spanish
    Service kind                : Complete Main
    Default                     : No
    Forced                      : No

    Audio #3
    ID                          : 4
    Format                      : E-AC-3
    Format/Info                 : Enhanced AC-3
    Commercial name             : Dolby Digital Plus
    Codec ID                    : A_EAC3
    Duration                    : 2 h 8 min
    Bit rate mode               : Constant
    Bit rate                    : 640 kb/s
    Channel(s)                  : 6 channels
    Channel layout              : L R C LFE Ls Rs
    Sampling rate               : 48.0 kHz
    Frame rate                  : 31.250 FPS (1536 SPF)
    Compression mode            : Lossy
    Stream size                 : 589 MiB (12%)
    Title                       : Inglés [CinemaniaHDD]
    Language                    : English
    Service kind                : Complete Main
    Default                     : No
    Forced                      : No

    Text #1
    ID                          : 5
    Format                      : UTF-8
    Codec ID                    : S_TEXT/UTF8
    Codec ID/Info               : UTF-8 Plain Text
    Duration                    : 1 h 45 min
    Bit rate                    : 1 b/s
    Count of elements           : 29
    Stream size                 : 1 019 Bytes (0%)
    Title                       : Forzados [CinemaniaHDD]
    Language                    : Spanish
    Default                     : Yes
    Forced                      : Yes

    Text #2
    ID                          : 6
    Format                      : UTF-8
    Codec ID                    : S_TEXT/UTF8
    Codec ID/Info               : UTF-8 Plain Text
    Duration                    : 2 h 0 min
    Bit rate                    : 46 b/s
    Count of elements           : 1199
    Stream size                 : 41.2 KiB (0%)
    Title                       : Español Latino [CinemaniaHDD]
    Language                    : Spanish
    Default                     : No
    Forced                      : No

    Text #3
    ID                          : 7
    Format                      : UTF-8
    Codec ID                    : S_TEXT/UTF8
    Codec ID/Info               : UTF-8 Plain Text
    Duration                    : 2 h 0 min
    Bit rate                    : 51 b/s
    Count of elements           : 1322
    Stream size                 : 45.3 KiB (0%)
    Title                       : Inglés [CinemaniaHDD]
    Language                    : English
    Default                     : No
    Forced                      : No

     

  • Peso: 4.80 GiB

Sinopsis

Nicholas Van Orton es un perspicaz e influyente hombre de negocios acostumbrado a controlar absolutamente todas las facetas de su existencia. Sin embargo, su perfecta vida sufre un dramático cambio cuando su hermano Conrad le hace un original regalo de cumpleaños que pronto tendrá consecuencias devastadoras. Se trata del acceso a una misteriosa y nueva forma de entretenimiento en la que todo puede perderse, y con una sola regla: no hay reglas.

Ficha técnica

Video trailer de la película

Enlaces de descarga

Rip de Bluray

Descargar The game (1997) [Open Matte] WEB-DL 1080p Latino




Aportes de DPeliculasHDmega la pass es:dpeliculashdmega.org Aportes de CinemaniaHD la pass es:cinemaniahdd.com Aportes recientes:cinemaniahdd.net
Guardado en : Drama , Misterio , OPEN MATTE , Suspenso

Películas relacionadas

descargar The game (1997) [Open Matte] WEB-DL 1080p Latino 1080p 1080p gratis, The game (1997) [Open Matte] WEB-DL 1080p Latino 1080p mega 1 link, The game (1997) [Open Matte] WEB-DL 1080p Latino 1080p pelicula completa, descargar The game (1997) [Open Matte] WEB-DL 1080p Latino 1080p gratis en mega.

The game (1997) [Open Matte] WEB-DL 1080p Latino pelicula full hd, The game (1997) [Open Matte] WEB-DL 1080p Latino mega latino, The game (1997) [Open Matte] WEB-DL 1080p Latino 4k latino, The game (1997) [Open Matte] WEB-DL 1080p Latino pelicula completa, The game (1997) [Open Matte] WEB-DL 1080p Latino descargar gratis, descargar The game (1997) [Open Matte] WEB-DL 1080p Latino pelicula latino, The game (1997) [Open Matte] WEB-DL 1080p Latino 1 link mega, The game (1997) [Open Matte] WEB-DL 1080p Latino 1 link google drive, The game (1997) [Open Matte] WEB-DL 1080p Latino hd 1080p latino.
Comentarios 0