The Front Runner (2018) Full 1080p Latino

1.615 vistas
1 estrella2 estrellas3 estrellas4 estrellas5 estrellas (1 votos, promedio: 4,00 de 5)
Cargando…

Información de The Front Runner (2018) Full 1080p Latino

Datos de la película

  • Calidad: Full 1080p
  • Audio: Español Latino AC3 5.1 BLURAY - Ingles DTS 5.1 BLURAY
  • Subtitulos: Español Latino PGS
  • Resolución: 1920x1080p
  • Formato: MKV
  • Codec: H.264
  • Encoder: Dracarys
  • Mediainfo: Clic para Mostrar Datos Ver
  • Format                      : Matroska
    Format version              : Version 4
    File size                   : 7.87 GiB
    Duration                    : 1 h 53 min
    Overall bit rate            : 9 927 kb/s
    Movie name                  : CinemaniaHDD.net
    Encoded date                : UTC 2019-02-17 20:42:10
    Writing application         : mkvmerge v30.1.0 ('Forever And More') 64-bit
    Writing library             : libebml v1.3.6 + libmatroska v1.4.9 / Lavf58.20.100

    Video
    ID                          : 1
    Format                      : AVC
    Format/Info                 : Advanced Video Codec
    Format profile              : [email protected]
    Format settings             : CABAC / 4 Ref Frames
    Format settings, CABAC      : Yes
    Format settings, ReFrames   : 4 frames
    Codec ID                    : V_MPEG4/ISO/AVC
    Duration                    : 1 h 53 min
    Bit rate                    : 7 741 kb/s
    Width                       : 1 920 pixels
    Height                      : 1 080 pixels
    Display aspect ratio        : 16:9
    Frame rate mode             : Constant
    Frame rate                  : 23.976 (24000/1001) FPS
    Color space                 : YUV
    Chroma subsampling          : 4:2:0
    Bit depth                   : 8 bits
    Scan type                   : Progressive
    Bits/(Pixel*Frame)          : 0.156
    Stream size                 : 6.14 GiB (78%)
    Writing library             : x264 core 157 r2935 545de2f
    Encoding settings           : cabac=1 / ref=4 / deblock=1:0:0 / analyse=0x3:0x133 / me=tesa / subme=11 / psy=1 / psy_rd=1.00:0.00 / mixed_ref=1 / me_range=24 / chroma_me=1 / trellis=2 / 8x8dct=1 / cqm=0 / deadzone=21,11 / fast_pskip=0 / chroma_qp_offset=-2 / threads=34 / lookahead_threads=8 / sliced_threads=0 / nr=0 / decimate=1 / interlaced=0 / bluray_compat=0 / constrained_intra=0 / bframes=16 / b_pyramid=2 / b_adapt=2 / b_bias=0 / direct=3 / weightb=1 / open_gop=0 / weightp=2 / keyint=240 / keyint_min=24 / scenecut=40 / intra_refresh=0 / rc_lookahead=60 / rc=crf / mbtree=1 / crf=20.0 / qcomp=0.60 / qpmin=0 / qpmax=69 / qpstep=4 / vbv_maxrate=62500 / vbv_bufsize=78125 / crf_max=0.0 / nal_hrd=none / filler=0 / ip_ratio=1.40 / aq=1:1.00
    Language                    : English
    Default                     : Yes
    Forced                      : No
    Color range                 : Limited
    Color primaries             : BT.709
    Transfer characteristics    : BT.709
    Matrix coefficients         : BT.709

    Audio #1
    ID                          : 2
    Format                      : AC-3
    Format/Info                 : Audio Coding 3
    Commercial name             : Dolby Digital
    Codec ID                    : A_AC3
    Duration                    : 1 h 53 min
    Bit rate mode               : Constant
    Bit rate                    : 640 kb/s
    Channel(s)                  : 6 channels
    Channel layout              : L R C LFE Ls Rs
    Sampling rate               : 48.0 kHz
    Frame rate                  : 31.250 FPS (1536 SPF)
    Bit depth                   : 16 bits
    Compression mode            : Lossy
    Stream size                 : 520 MiB (6%)
    Language                    : Spanish
    Service kind                : Complete Main
    Default                     : Yes
    Forced                      : No

    Audio #2
    ID                          : 3
    Format                      : DTS
    Format/Info                 : Digital Theater Systems
    Codec ID                    : A_DTS
    Duration                    : 1 h 53 min
    Bit rate mode               : Constant
    Bit rate                    : 1 509 kb/s
    Channel(s)                  : 6 channels
    Channel layout              : C L R Ls Rs LFE
    Sampling rate               : 48.0 kHz
    Frame rate                  : 93.750 FPS (512 SPF)
    Bit depth                   : 16 bits
    Compression mode            : Lossy
    Stream size                 : 1.20 GiB (15%)
    Language                    : English
    Default                     : No
    Forced                      : No

    Text
    ID                          : 4
    Format                      : PGS
    Muxing mode                 : zlib
    Codec ID                    : S_HDMV/PGS
    Codec ID/Info               : Picture based subtitle format used on BDs/HD-DVDs
    Duration                    : 1 h 45 min
    Bit rate                    : 71.7 kb/s
    Count of elements           : 4071
    Stream size                 : 54.1 MiB (1%)
    Language                    : Spanish
    Default                     : No
    Forced                      : No

    Menu
    00:00:00.000                : :Chapter 1
    00:08:02.691                : :Chapter 2
    00:14:56.771                : :Chapter 3
    00:19:32.505                : :Chapter 4
    00:27:22.808                : :Chapter 5
    00:34:31.945                : :Chapter 6
    00:40:30.303                : :Chapter 7
    00:45:55.920                : :Chapter 8
    00:51:07.398                : :Chapter 9
    00:58:51.987                : :Chapter 10
    01:09:06.017                : :Chapter 11
    01:15:57.762                : :Chapter 12
    01:22:31.738                : :Chapter 13
    01:29:28.697                : :Chapter 14
    01:34:40.466                : :Chapter 15
    01:41:32.003                : :Chapter 16

  • Peso: 7.87 GiB

Sinopsis

Narra la campaña presidencial del senador estadounidense Gary Hart, que tuvo lugar en 1988, momento en el que los medios de comunicación difundieron un escandaloso romance extramatrimonial del político. Tras perder la candidatura democrática contra Walter Mondale en 1984, Gary Hart (Jackman) hizo un regreso triunfal a la candidatura a Presidente en 1987, en un momento en que su partido estaba desesperado por arrebatarle el poder a los republicanos después de dos mandatos de Reagan. Hart tenía todo para él: inteligencia, carisma y experiencia como abogado, director de campaña y senador, sin mencionar a una Primera Dama ideal en su adorable esposa Lee (Farmiga). Pero todo comienza a desmoronarse cuando corre la voz de que Hart es un mujeriego, un rumor seguido rápidamente por informes de que ha tenido una aventura con Donna Rice (Sara Paxton).

Ficha técnica

Video trailer de la película

Enlaces de descarga

Rip de Bluray

Descargar The Front Runner (2018) Full 1080p Latino




Aportes de DPeliculasHDmega la pass es:dpeliculashdmega.org Aportes de CinemaniaHD la pass es:cinemaniahdd.com

Películas relacionadas

  • Las Dos Reinas (2018) 4K UHD HDR Latino

    2018
    Las Dos Reinas (2018) 4K UHD HDR Latino

    5.0 2h 5m 2018

    Descargar Las Dos Reinas (2018) 4K UHD HDR Latino, Mega, Google Drive. Dos mujeres rivales en el poder...

    Director: Josie Rourke

    Género: 4K HDR

    Actores: Thom Petty

  • The Mule (2018) 1080p Latino

    2018
    The Mule (2018) 1080p Latino

    0.0 1h 56m 2018

    A Earl Stone (Eastwood), un octogenario que está en quiebra, solo, y que se enfrenta a la ejecución...

    Director: Clint Eastwood

    Género: Crimen

    Actores: Victor Rasuk

  • Aquaman (2018) 3D OU Full HD 1080p Latino

    2018
    Aquaman (2018) 3D OU Full HD 1080p Latino

    5.0 2h 24m 2018

    Un icono durante más de 70 años, Aquaman (Jason Momoa) es el Rey de los Siete Mares. Este reacio gobernante...

    Director: James Wan

    Género: 3D Half OU

    Actores: Yahya Abdul-Mateen II

  • The mule (2018) WEB-DL 1080p Latino

    2018
    The mule (2018) WEB-DL 1080p Latino

    0.0 1h 56m 2018

    A Earl Stone (Eastwood), un octogenario que está en quiebra, solo, y que se enfrenta a la ejecución...

    Director: Clint Eastwood

    Género: Crimen

    Actores: Victor Rasuk

  • Aquaman (2018) Full HD 1080p Latino

    2018
    Aquaman (2018) Full HD 1080p Latino

    4.4 2h 24m 2018

    Un icono durante más de 70 años, Aquaman (Jason Momoa) es el Rey de los Siete Mares. Este reacio gobernante...

    Director: James Wan

    Género: Acción

    Actores: Yahya Abdul-Mateen II

Comentarios 0