×

¿Problemas para descargar con Mozilla, EDGE? Deshabilita la opción "Abrir vinculos en una pestaña nueva" tal como lo muestra ésta imagen.

The Frighteners (1996) REMUX 1080p Latino – CMHDD

210 vistas

Información de The Frighteners (1996) REMUX 1080p Latino – CMHDD

Datos de la película

  • Calidad: Full 1080p
  • Audio: Español Latino AC3 2.0 DVD - Ingles DTS 5.1 BLURAY
  • Subtitulos: Español Latino PGS
  • Resolución: 1920x1080p
  • Formato: MKV
  • Codec: H.264
  • Encoder: Dracarys
  • Mediainfo: Clic para Mostrar Datos Ver
  • Format                      : Matroska
    Format version              : Version 4
    File size                   : 21.1 GiB
    Duration                    : 1 h 49 min
    Overall bit rate mode       : Variable
    Overall bit rate            : 27.5 Mb/s
    Movie name                  : The Frighteners (1996) REMUX 1080p Latino - CMHDD
    Encoded date                : UTC 2021-05-10 01:21:35
    Writing application         : mkvmerge v56.1.0 ('My Friend') 64-bit
    Writing library             : libebml v1.4.2 + libmatroska v1.6.4
    Cover                       : Yes
    Attachments                 : cover.jpg

    Video
    ID                          : 1
    Format                      : AVC
    Format/Info                 : Advanced Video Codec
    Format profile              : High@L4.1
    Format settings             : CABAC / 4 Ref Frames
    Format settings, CABAC      : Yes
    Format settings, Reference  : 4 frames
    Codec ID                    : V_MPEG4/ISO/AVC
    Duration                    : 1 h 49 min
    Bit rate mode               : Variable
    Bit rate                    : 22.6 Mb/s
    Maximum bit rate            : 35.0 Mb/s
    Width                       : 1 920 pixels
    Height                      : 1 080 pixels
    Display aspect ratio        : 16:9
    Frame rate mode             : Constant
    Frame rate                  : 23.976 (24000/1001) FPS
    Color space                 : YUV
    Chroma subsampling          : 4:2:0
    Bit depth                   : 8 bits
    Scan type                   : Progressive
    Bits/(Pixel*Frame)          : 0.454
    Stream size                 : 17.3 GiB (82%)
    Default                     : Yes
    Forced                      : No
    Color range                 : Limited
    Color primaries             : BT.709
    Transfer characteristics    : BT.709
    Matrix coefficients         : BT.709

    Audio #1
    ID                          : 2
    Format                      : AC-3
    Format/Info                 : Audio Coding 3
    Commercial name             : Dolby Digital
    Codec ID                    : A_AC3
    Duration                    : 1 h 49 min
    Bit rate mode               : Constant
    Bit rate                    : 448 kb/s
    Channel(s)                  : 2 channels
    Channel layout              : L R
    Sampling rate               : 48.0 kHz
    Frame rate                  : 31.250 FPS (1536 SPF)
    Compression mode            : Lossy
    Stream size                 : 352 MiB (2%)
    Language                    : Spanish
    Service kind                : Complete Main
    Default                     : Yes
    Forced                      : No

    Audio #2
    ID                          : 3
    Format                      : DTS XLL
    Format/Info                 : Digital Theater Systems
    Commercial name             : DTS-HD Master Audio
    Codec ID                    : A_DTS
    Duration                    : 1 h 49 min
    Bit rate mode               : Variable
    Bit rate                    : 4 436 kb/s
    Channel(s)                  : 6 channels
    Channel layout              : C L R Ls Rs LFE
    Sampling rate               : 48.0 kHz
    Frame rate                  : 93.750 FPS (512 SPF)
    Bit depth                   : 24 bits
    Compression mode            : Lossless
    Stream size                 : 3.41 GiB (16%)
    Language                    : English
    Default                     : No
    Forced                      : No

    Text
    ID                          : 4
    Format                      : PGS
    Muxing mode                 : zlib
    Codec ID                    : S_HDMV/PGS
    Codec ID/Info               : Picture based subtitle format used on BDs/HD-DVDs
    Duration                    : 1 h 48 min
    Bit rate                    : 27.5 kb/s
    Count of elements           : 2332
    Stream size                 : 21.4 MiB (0%)
    Language                    : Spanish
    Default                     : No
    Forced                      : No

    Menu
    00:00:00.000                : Chapter 01
    00:11:50.251                : Chapter 02
    00:17:28.464                : Chapter 03
    00:25:31.196                : Chapter 04
    00:33:14.325                : Chapter 05
    00:37:03.638                : Chapter 06
    00:40:55.452                : Chapter 07
    00:47:20.587                : Chapter 08
    00:51:58.657                : Chapter 09
    00:55:36.875                : Chapter 10
    01:09:29.873                : Chapter 11
    01:11:44.174                : Chapter 12
    01:20:04.341                : Chapter 13
    01:24:29.397                : Chapter 14
    01:39:37.721                : Chapter 15
    01:43:32.998                : Chapter 16

  • Peso: 21.1 GiB

Sinopsis

Frank Bannister es un charlatán que posee extraordinarias facultades psíquicas, pero no las usa para hacer el bien, sino para ganar dinero hostigando a sus clientes con la ayuda de algunos espectros que trabajan a su servicio. La situación cambiará cuando en el pueblo empiecen a producirse una serie de muertes inexplicables.

Ficha técnica

Video trailer de la película

Enlaces de descarga

Rip de Bluray

Descargar The Frighteners (1996) REMUX 1080p Latino – CMHDD


Aportes de DPeliculasHDmega la pass es:dpeliculashdmega.org Aportes de CinemaniaHD la pass es:cinemaniahdd.com
Guardado en : Comedia , Terror

Películas relacionadas

descargar The Frighteners (1996) REMUX 1080p Latino – CMHDD Full 1080p 1080p gratis, The Frighteners (1996) REMUX 1080p Latino – CMHDD Full 1080p mega 1 link, The Frighteners (1996) REMUX 1080p Latino – CMHDD Full 1080p pelicula completa, descargar The Frighteners (1996) REMUX 1080p Latino – CMHDD Full 1080p gratis en mega.

The Frighteners (1996) REMUX 1080p Latino – CMHDD pelicula full hd, The Frighteners (1996) REMUX 1080p Latino – CMHDD mega latino, The Frighteners (1996) REMUX 1080p Latino – CMHDD 4k latino, The Frighteners (1996) REMUX 1080p Latino – CMHDD pelicula completa, The Frighteners (1996) REMUX 1080p Latino – CMHDD descargar gratis, descargar The Frighteners (1996) REMUX 1080p Latino – CMHDD pelicula latino, The Frighteners (1996) REMUX 1080p Latino – CMHDD 1 link mega, The Frighteners (1996) REMUX 1080p Latino – CMHDD 1 link google drive, The Frighteners (1996) REMUX 1080p Latino – CMHDD hd 1080p latino.
Comentarios 0