×

¿Problemas para descargar con Mozilla, EDGE? Deshabilita la opción "Abrir vinculos en una pestaña nueva" tal como lo muestra ésta imagen.

The Frighteners (1996) Full HD 1080p Latino – CMHDD

273 vistas

Información de The Frighteners (1996) Full HD 1080p Latino – CMHDD

Datos de la película

  • Calidad: Full 1080p
  • Audio: Español Latino AC3 2.0 DVD - Ingles DTS 5.1 BLURAY
  • Subtitulos: Español Latino PGS
  • Resolución: 1920x1080p
  • Formato: MKV
  • Codec: H.264
  • Encoder: Dracarys
  • Mediainfo: Clic para Mostrar Datos Ver
  • Format                      : Matroska
    Format version              : Version 4
    File size                   : 10.1 GiB
    Duration                    : 1 h 49 min
    Overall bit rate mode       : Variable
    Overall bit rate            : 13.1 Mb/s
    Movie name                  : The Frighteners (1996) Full HD 1080p Latino - CMHDD
    Encoded date                : UTC 2021-05-12 18:52:15
    Writing application         : mkvmerge v56.1.0 ('My Friend') 64-bit
    Writing library             : libebml v1.4.2 + libmatroska v1.6.4

    Video
    ID                          : 1
    Format                      : AVC
    Format/Info                 : Advanced Video Codec
    Format profile              : High@L4.1
    Format settings             : CABAC / 4 Ref Frames
    Format settings, CABAC      : Yes
    Format settings, Reference  : 4 frames
    Codec ID                    : V_MPEG4/ISO/AVC
    Duration                    : 1 h 49 min
    Bit rate                    : 8 252 kb/s
    Width                       : 1 920 pixels
    Height                      : 1 080 pixels
    Display aspect ratio        : 16:9
    Frame rate mode             : Constant
    Frame rate                  : 23.976 (24000/1001) FPS
    Color space                 : YUV
    Chroma subsampling          : 4:2:0
    Bit depth                   : 8 bits
    Scan type                   : Progressive
    Bits/(Pixel*Frame)          : 0.166
    Stream size                 : 6.33 GiB (63%)
    Writing library             : x264 core 157 r2935 545de2f
    Encoding settings           : cabac=1 / ref=4 / deblock=1:0:0 / analyse=0x3:0x133 / me=tesa / subme=11 / psy=1 / psy_rd=1.00:0.00 / mixed_ref=1 / me_range=24 / chroma_me=1 / trellis=2 / 8x8dct=1 / cqm=0 / deadzone=21,11 / fast_pskip=0 / chroma_qp_offset=-2 / threads=24 / lookahead_threads=6 / sliced_threads=0 / nr=0 / decimate=1 / interlaced=0 / bluray_compat=0 / constrained_intra=0 / bframes=16 / b_pyramid=2 / b_adapt=2 / b_bias=0 / direct=3 / weightb=1 / open_gop=0 / weightp=2 / keyint=240 / keyint_min=24 / scenecut=40 / intra_refresh=0 / rc_lookahead=60 / rc=crf / mbtree=1 / crf=20.0 / qcomp=0.60 / qpmin=0 / qpmax=69 / qpstep=4 / vbv_maxrate=62500 / vbv_bufsize=78125 / crf_max=0.0 / nal_hrd=none / filler=0 / ip_ratio=1.40 / aq=1:1.00
    Default                     : Yes
    Forced                      : No
    Color range                 : Limited
    Color primaries             : BT.709
    Transfer characteristics    : BT.709
    Matrix coefficients         : BT.709

    Audio #1
    ID                          : 2
    Format                      : AC-3
    Format/Info                 : Audio Coding 3
    Commercial name             : Dolby Digital
    Codec ID                    : A_AC3
    Duration                    : 1 h 49 min
    Bit rate mode               : Constant
    Bit rate                    : 448 kb/s
    Channel(s)                  : 2 channels
    Channel layout              : L R
    Sampling rate               : 48.0 kHz
    Frame rate                  : 31.250 FPS (1536 SPF)
    Compression mode            : Lossy
    Stream size                 : 352 MiB (3%)
    Language                    : Spanish
    Service kind                : Complete Main
    Default                     : Yes
    Forced                      : No

    Audio #2
    ID                          : 3
    Format                      : DTS XLL
    Format/Info                 : Digital Theater Systems
    Commercial name             : DTS-HD Master Audio
    Codec ID                    : A_DTS
    Duration                    : 1 h 49 min
    Bit rate mode               : Variable
    Bit rate                    : 4 436 kb/s
    Channel(s)                  : 6 channels
    Channel layout              : C L R Ls Rs LFE
    Sampling rate               : 48.0 kHz
    Frame rate                  : 93.750 FPS (512 SPF)
    Bit depth                   : 24 bits
    Compression mode            : Lossless
    Stream size                 : 3.41 GiB (34%)
    Language                    : English
    Default                     : No
    Forced                      : No

    Text
    ID                          : 4
    Format                      : PGS
    Muxing mode                 : zlib
    Codec ID                    : S_HDMV/PGS
    Codec ID/Info               : Picture based subtitle format used on BDs/HD-DVDs
    Duration                    : 1 h 48 min
    Bit rate                    : 27.5 kb/s
    Count of elements           : 2332
    Stream size                 : 21.4 MiB (0%)
    Language                    : Spanish
    Default                     : No
    Forced                      : No

    Menu
    00:00:00.000                : :Chapter 1
    00:11:50.251                : :Chapter 2
    00:17:28.464                : :Chapter 3
    00:25:31.196                : :Chapter 4
    00:33:14.367                : :Chapter 5
    00:37:03.680                : :Chapter 6
    00:40:55.495                : :Chapter 7
    00:47:20.629                : :Chapter 8
    00:51:58.699                : :Chapter 9
    00:55:36.917                : :Chapter 10
    01:09:29.916                : :Chapter 11
    01:11:44.217                : :Chapter 12
    01:20:04.341                : :Chapter 13
    01:24:29.398                : :Chapter 14
    01:39:37.763                : :Chapter 15
    01:43:33.040                : :Chapter 16

  • Peso: 10.1 GiB

Sinopsis

Frank Bannister es un charlatán que posee extraordinarias facultades psíquicas, pero no las usa para hacer el bien, sino para ganar dinero hostigando a sus clientes con la ayuda de algunos espectros que trabajan a su servicio. La situación cambiará cuando en el pueblo empiecen a producirse una serie de muertes inexplicables.

Ficha técnica

Video trailer de la película

Enlaces de descarga

Rip de Bluray

Descargar The Frighteners (1996) Full HD 1080p Latino – CMHDD




Aportes de DPeliculasHDmega la pass es:dpeliculashdmega.org Aportes de CinemaniaHD la pass es:cinemaniahdd.com
Guardado en : Comedia , Terror

Películas relacionadas

descargar The Frighteners (1996) Full HD 1080p Latino – CMHDD Full 1080p 1080p gratis, The Frighteners (1996) Full HD 1080p Latino – CMHDD Full 1080p mega 1 link, The Frighteners (1996) Full HD 1080p Latino – CMHDD Full 1080p pelicula completa, descargar The Frighteners (1996) Full HD 1080p Latino – CMHDD Full 1080p gratis en mega.

The Frighteners (1996) Full HD 1080p Latino – CMHDD pelicula full hd, The Frighteners (1996) Full HD 1080p Latino – CMHDD mega latino, The Frighteners (1996) Full HD 1080p Latino – CMHDD 4k latino, The Frighteners (1996) Full HD 1080p Latino – CMHDD pelicula completa, The Frighteners (1996) Full HD 1080p Latino – CMHDD descargar gratis, descargar The Frighteners (1996) Full HD 1080p Latino – CMHDD pelicula latino, The Frighteners (1996) Full HD 1080p Latino – CMHDD 1 link mega, The Frighteners (1996) Full HD 1080p Latino – CMHDD 1 link google drive, The Frighteners (1996) Full HD 1080p Latino – CMHDD hd 1080p latino.