×

¿Problemas para descargar con Mozilla, EDGE? Deshabilita la opción "Abrir vinculos en una pestaña nueva" tal como lo muestra ésta imagen.

The Frighteners (1996) [EXTENDED] REMUX 1080p SUP – CMHDD

160 vistas

Información de The Frighteners (1996) [EXTENDED] REMUX 1080p SUP – CMHDD

Datos de la película

  • Calidad: Full 1080p
  • Audio: Ingles DTS 5.1 BLURAY
  • Subtitulos: Español Latino PGS
  • Resolución: 1920x1080p
  • Formato: MKV
  • Codec: H.264
  • Encoder: Dracarys
  • Mediainfo: Clic para Mostrar Datos Ver
  • Format                      : Matroska
    Format version              : Version 4
    File size                   : 23.3 GiB
    Duration                    : 2 h 2 min
    Overall bit rate mode       : Variable
    Overall bit rate            : 27.2 Mb/s
    Movie name                  : The Frighteners (1996) [EXTENDED] REMUX 1080p SUP - CMHDD
    Encoded date                : UTC 2021-05-10 01:31:19
    Writing application         : mkvmerge v56.1.0 ('My Friend') 64-bit
    Writing library             : libebml v1.4.2 + libmatroska v1.6.4
    Cover                       : Yes
    Attachments                 : cover.jpg / cover.jpg

    Video
    ID                          : 1
    Format                      : AVC
    Format/Info                 : Advanced Video Codec
    Format profile              : High@L4.1
    Format settings             : CABAC / 4 Ref Frames
    Format settings, CABAC      : Yes
    Format settings, Reference  : 4 frames
    Codec ID                    : V_MPEG4/ISO/AVC
    Duration                    : 2 h 2 min
    Bit rate mode               : Variable
    Bit rate                    : 22.8 Mb/s
    Maximum bit rate            : 35.0 Mb/s
    Width                       : 1 920 pixels
    Height                      : 1 080 pixels
    Display aspect ratio        : 16:9
    Frame rate mode             : Constant
    Frame rate                  : 23.976 (24000/1001) FPS
    Color space                 : YUV
    Chroma subsampling          : 4:2:0
    Bit depth                   : 8 bits
    Scan type                   : Progressive
    Bits/(Pixel*Frame)          : 0.458
    Stream size                 : 19.5 GiB (84%)
    Default                     : Yes
    Forced                      : No
    Color range                 : Limited
    Color primaries             : BT.709
    Transfer characteristics    : BT.709
    Matrix coefficients         : BT.709

    Audio
    ID                          : 2
    Format                      : DTS XLL
    Format/Info                 : Digital Theater Systems
    Commercial name             : DTS-HD Master Audio
    Codec ID                    : A_DTS
    Duration                    : 2 h 2 min
    Bit rate mode               : Variable
    Bit rate                    : 4 393 kb/s
    Channel(s)                  : 6 channels
    Channel layout              : C L R Ls Rs LFE
    Sampling rate               : 48.0 kHz
    Frame rate                  : 93.750 FPS (512 SPF)
    Bit depth                   : 24 bits
    Compression mode            : Lossless
    Stream size                 : 3.76 GiB (16%)
    Language                    : English
    Default                     : Yes
    Forced                      : No

    Text
    ID                          : 3
    Format                      : PGS
    Muxing mode                 : zlib
    Codec ID                    : S_HDMV/PGS
    Codec ID/Info               : Picture based subtitle format used on BDs/HD-DVDs
    Duration                    : 1 h 56 min
    Bit rate                    : 29.1 kb/s
    Count of elements           : 2646
    Stream size                 : 24.3 MiB (0%)
    Language                    : Spanish
    Default                     : Yes
    Forced                      : No

    Menu
    00:00:00.000                : Chapter 01
    00:06:08.576                : Chapter 02
    00:07:18.020                : Chapter 03
    00:09:25.398                : Chapter 04
    00:12:41.218                : Chapter 05
    00:17:11.447                : Chapter 06
    00:18:04.166                : Chapter 07
    00:20:02.492                : Chapter 08
    00:21:09.726                : Chapter 09
    00:25:10.091                : Chapter 10
    00:26:34.426                : Chapter 11
    00:28:34.420                : Chapter 12
    00:31:11.286                : Chapter 13
    00:33:54.824                : Chapter 14
    00:35:19.951                : Chapter 15
    00:39:07.303                : Chapter 16
    00:42:56.615                : Chapter 17
    00:46:48.430                : Chapter 18
    00:49:40.477                : Chapter 19
    00:52:23.139                : Chapter 20
    00:53:13.565                : Chapter 21
    00:57:19.477                : Chapter 22
    00:58:38.139                : Chapter 23
    00:59:58.678                : Chapter 24
    01:01:31.354                : Chapter 25
    01:02:06.305                : Chapter 26
    01:06:56.720                : Chapter 27
    01:08:38.864                : Chapter 28
    01:14:43.645                : Chapter 29
    01:15:45.332                : Chapter 30
    01:18:06.306                : Chapter 31
    01:20:20.607                : Chapter 32
    01:25:23.868                : Chapter 33
    01:30:28.047                : Chapter 34
    01:32:42.139                : Chapter 35
    01:34:52.394                : Chapter 36
    01:36:52.556                : Chapter 37
    01:37:37.685                : Chapter 38
    01:39:40.891                : Chapter 39
    01:40:56.508                : Chapter 40
    01:42:23.553                : Chapter 41
    01:46:57.285                : Chapter 42
    01:49:02.035                : Chapter 43
    01:49:37.487                : Chapter 44
    01:52:13.351                : Chapter 45
    01:54:14.389                : Chapter 46
    01:55:56.949                : Chapter 47
    01:57:50.438                : Chapter 48

  • Peso: 23.3 GiB

Sinopsis

Frank Bannister es un charlatán que posee extraordinarias facultades psíquicas, pero no las usa para hacer el bien, sino para ganar dinero hostigando a sus clientes con la ayuda de algunos espectros que trabajan a su servicio. La situación cambiará cuando en el pueblo empiecen a producirse una serie de muertes inexplicables.

Ficha técnica

Video trailer de la película

Enlaces de descarga

Rip de Bluray

Descargar The Frighteners (1996) [EXTENDED] REMUX 1080p SUP – CMHDD


Aportes de DPeliculasHDmega la pass es:dpeliculashdmega.org Aportes de CinemaniaHD la pass es:cinemaniahdd.com
Guardado en : Comedia , Terror

Películas relacionadas

  • Tren Bala (2022) WEB-DL 4K UHD HDR Latino

    Tren Bala (2022) WEB-DL 4K UHD HDR Latino

    2022
    Tren Bala (2022) WEB-DL 4K UHD HDR Latino

    2h 7m 2022

    Descargar Tren Bala (2022) WEB-DL 4K UHD HDR Latino. El desafortunado asesino "Catarina" está decidido...

    Director: Paul Barry

    Género: 4K HDR

    Actores: Zooey Miyoshi

  • Tren Bala (2022) AMZN WEB-DL 1080p Latino

    Tren Bala (2022) AMZN WEB-DL 1080p Latino

    2022
    Tren Bala (2022) AMZN WEB-DL 1080p Latino

    2h 7m 2022

    Descargar Tren Bala (2022) AMZN WEB-DL 1080p Latino. Cinco asesinos a sueldo se encuentran a bordo de...

    Director: Paul Barry

    Género: Acción

    Actores: Zooey Miyoshi

  • Rick y Morty (2022) Temporada 6 WEB-DL 1080p Latino

    Rick y Morty (2022) Temporada 6 WEB-DL 1080p Latino

    2013
    Rick y Morty (2022) Temporada 6 WEB-DL 1080p Latino

    0h 22m 2013

    Comedia animada que narra las aventuras de un científico loco Rick Sánchez, que regresa después de...

    Director: Justin Roiland

    Género: Action & Adventure

    Actores: Spencer Grammer

  • Poltergeist (1982) REMUX 1080p Latino – CMHDD

    Poltergeist (1982) REMUX 1080p Latino – CMHDD

    1982
    Poltergeist (1982) REMUX 1080p Latino – CMHDD

    1h 54m 1982

    Una familia americana de clase media se traslada a vivir e una nueva casa en un aparentemente idílico...

    Director: Tobe Hooper

    Género: Terror

    Actores: Zelda Rubinstein

descargar The Frighteners (1996) [EXTENDED] REMUX 1080p SUP – CMHDD Full 1080p 1080p gratis, The Frighteners (1996) [EXTENDED] REMUX 1080p SUP – CMHDD Full 1080p mega 1 link, The Frighteners (1996) [EXTENDED] REMUX 1080p SUP – CMHDD Full 1080p pelicula completa, descargar The Frighteners (1996) [EXTENDED] REMUX 1080p SUP – CMHDD Full 1080p gratis en mega.

The Frighteners (1996) [EXTENDED] REMUX 1080p SUP – CMHDD pelicula full hd, The Frighteners (1996) [EXTENDED] REMUX 1080p SUP – CMHDD mega latino, The Frighteners (1996) [EXTENDED] REMUX 1080p SUP – CMHDD 4k latino, The Frighteners (1996) [EXTENDED] REMUX 1080p SUP – CMHDD pelicula completa, The Frighteners (1996) [EXTENDED] REMUX 1080p SUP – CMHDD descargar gratis, descargar The Frighteners (1996) [EXTENDED] REMUX 1080p SUP – CMHDD pelicula latino, The Frighteners (1996) [EXTENDED] REMUX 1080p SUP – CMHDD 1 link mega, The Frighteners (1996) [EXTENDED] REMUX 1080p SUP – CMHDD 1 link google drive, The Frighteners (1996) [EXTENDED] REMUX 1080p SUP – CMHDD hd 1080p latino.
Comentarios 0