×

¿Problemas para descargar con Mozilla, EDGE? Deshabilita la opción "Abrir vinculos en una pestaña nueva" tal como lo muestra ésta imagen.

La Fuente De La Vida (2006) REMUX 1080p Latino-CMHDD

76 vistas

Información de La Fuente De La Vida (2006) REMUX 1080p Latino-CMHDD

Datos de la película

  • Calidad: Full 1080p
  • Audio: Español Latino AC3 5.1 DVD - Ingles DTS 5.1 BLURAY
  • Subtitulos: Español PGS - Ingles PGS
  • Resolución: 1920x1080p
  • Formato: MKV
  • Codec: H.264
  • Encoder: CinefiloCool
  • Mediainfo: Clic para Mostrar Datos Ver
  • The.Fountain.2006.Bluray.REMUX.1080p.MPEG-2.Latino-CC@CMHDD.mkv
    Format                      : Matroska
    Format version              : Version 4
    File size                   : 25.6 GiB
    Duration                    : 1 h 36 min
    Overall bit rate mode       : Variable
    Overall bit rate            : 37.8 Mb/s
    Movie name                  : The Fountain (2006) CinemaniaHDD.Net
    Encoded date                : UTC 2024-01-16 04:40:42
    Writing application         : mkvmerge v56.1.0 ('My Friend') 64-bit
    Writing library             : libebml v1.4.2 + libmatroska v1.6.4
    Attachments                 : CINEMANIAHD.png

    Video
    ID                          : 1
    ID in the original source m : 4113 (0x1011)
    Format                      : MPEG Video
    Format version              : Version 2
    Format profile              : Main@High
    Format settings             : CustomMatrix / BVOP
    Format settings, BVOP       : Yes
    Format settings, Matrix     : Custom
    Format settings, GOP        : M=3, N=12
    Codec ID                    : V_MPEG2
    Codec ID/Info               : MPEG 1 or 2 Video
    Duration                    : 1 h 36 min
    Bit rate mode               : Variable
    Bit rate                    : 33.3 Mb/s
    Maximum bit rate            : 40.0 Mb/s
    Width                       : 1 920 pixels
    Height                      : 1 080 pixels
    Display aspect ratio        : 16:9
    Frame rate mode             : Constant
    Frame rate                  : 23.976 (24000/1001) FPS
    Color space                 : YUV
    Chroma subsampling          : 4:2:0
    Bit depth                   : 8 bits
    Scan type                   : Progressive
    Compression mode            : Lossy
    Bits/(Pixel*Frame)          : 0.670
    Time code of first frame    : 00:00:00:00
    Time code source            : Group of pictures header
    GOP, Open/Closed            : Open
    GOP, Open/Closed of first f : Closed
    Stream size                 : 22.6 GiB (88%)
    Title                       : REMUX HD1080p [CinemaniaHDD]
    Language                    : English
    Default                     : Yes
    Forced                      : Yes
    Original source medium      : Blu-ray

    Audio #1
    ID                          : 2
    Format                      : AC-3
    Format/Info                 : Audio Coding 3
    Commercial name             : Dolby Digital
    Codec ID                    : A_AC3
    Duration                    : 1 h 36 min
    Bit rate mode               : Constant
    Bit rate                    : 448 kb/s
    Channel(s)                  : 6 channels
    Channel layout              : L R C LFE Ls Rs
    Sampling rate               : 48.0 kHz
    Frame rate                  : 31.250 FPS (1536 SPF)
    Compression mode            : Lossy
    Stream size                 : 311 MiB (1%)
    Title                       : Español Latino [CinemaniaHDD]
    Language                    : Spanish
    Service kind                : Complete Main
    Default                     : Yes
    Forced                      : Yes

    Audio #2
    ID                          : 3
    ID in the original source m : 4352 (0x1100)
    Format                      : DTS XLL
    Format/Info                 : Digital Theater Systems
    Commercial name             : DTS-HD Master Audio
    Codec ID                    : A_DTS
    Duration                    : 1 h 36 min
    Bit rate mode               : Variable
    Bit rate                    : 4 036 kb/s
    Channel(s)                  : 6 channels
    Channel layout              : C L R Ls Rs LFE
    Sampling rate               : 48.0 kHz
    Frame rate                  : 93.750 FPS (512 SPF)
    Bit depth                   : 24 bits
    Compression mode            : Lossless
    Stream size                 : 2.73 GiB (11%)
    Title                       : Ingles [CinemaniaHDD]
    Language                    : English
    Default                     : No
    Forced                      : No
    Original source medium      : Blu-ray

    Text #1
    ID                          : 4
    ID in the original source m : 4611 (0x1203)
    Format                      : PGS
    Muxing mode                 : zlib
    Codec ID                    : S_HDMV/PGS
    Codec ID/Info               : Picture based subtitle format used on BDs/HD-DVDs
    Duration                    : 1 h 29 min
    Bit rate                    : 15.1 kb/s
    Count of elements           : 1157
    Stream size                 : 9.62 MiB (0%)
    Title                       : Español-PGS [CinemaniaHDD]
    Language                    : Spanish
    Default                     : No
    Forced                      : No
    Original source medium      : Blu-ray

    Text #2
    ID                          : 5
    ID in the original source m : 4608 (0x1200)
    Format                      : PGS
    Muxing mode                 : zlib
    Codec ID                    : S_HDMV/PGS
    Codec ID/Info               : Picture based subtitle format used on BDs/HD-DVDs
    Duration                    : 1 h 27 min
    Bit rate                    : 14.7 kb/s
    Count of elements           : 1218
    Stream size                 : 9.27 MiB (0%)
    Title                       : Ingles [CinemaniaHDD]
    Language                    : English
    Default                     : No
    Forced                      : No
    Original source medium      : Blu-ray

    Text #3
    ID                          : 6
    Format                      : UTF-8
    Codec ID                    : S_TEXT/UTF8
    Codec ID/Info               : UTF-8 Plain Text
    Duration                    : 1 h 26 min
    Bit rate                    : 0 b/s
    Count of elements           : 2
    Stream size                 : 52.0 Bytes (0%)
    Title                       : Forzados-SRT [CinemaniaHDD]
    Language                    : Spanish
    Default                     : Yes
    Forced                      : Yes

    Text #4
    ID                          : 7
    Format                      : UTF-8
    Codec ID                    : S_TEXT/UTF8
    Codec ID/Info               : UTF-8 Plain Text
    Duration                    : 1 h 35 min
    Bit rate                    : 29 b/s
    Count of elements           : 697
    Stream size                 : 20.9 KiB (0%)
    Title                       : Español-SRT [CinemaniaHDD]
    Language                    : Spanish
    Default                     : No
    Forced                      : No

    Menu
    00:00:00.000                : Chapter 01
    00:07:19.564                : Chapter 02
    00:11:23.683                : Chapter 03
    00:14:41.130                : Chapter 04
    00:20:27.351                : Chapter 05
    00:27:49.000                : Chapter 06
    00:30:41.005                : Chapter 07
    00:34:24.395                : Chapter 08
    00:38:19.255                : Chapter 09
    00:45:52.082                : Chapter 10
    00:48:11.722                : Chapter 11
    00:50:46.668                : Chapter 12
    00:55:14.978                : Chapter 13
    01:01:18.466                : Chapter 14
    01:07:02.685                : Chapter 15
    01:12:08.866                : Chapter 16
    01:15:22.684                : Chapter 17
    01:16:45.809                : Chapter 18
    01:21:39.728                : Chapter 19
    01:30:33.761                : Chapter 20

  • Peso: 25.6 GiB

Sinopsis

Descargar La Fuente De La Vida (2006) REMUX 1080p Latino-CMHDD. Es la búsqueda emprendida por Tommy (Hugh Jackman) para salvar a Isabel (Rachel Weisz), la mujer de la que está enamorado. Isabel escritora, lleva meses trabajando en un relato fantástico en el que un vasallo, llamado como él, Tomas, busca el elixir de la inmortalidad. Solo bebiendo del árbol de la vida vivirá eternamente. Inspirado en la historia que ella ha escrito, se sumerge en el ficticio mundo para investigar y crear un medicamento que cure el cáncer terminal que día a día mata a su amada. Tommy se verá envuelto en ambos mundos, real y fantástico, hasta aceptar en el que tiene que vivir, donde existen hechos irremediables que no se pueden cambiar.

Ficha técnica

Video trailer de la película

Enlaces de descarga

Rip de Bluray

Descargar La Fuente De La Vida (2006) REMUX 1080p Latino-CMHDD


Aportes de DPeliculasHDmega la pass es:dpeliculashdmega.org Aportes de CinemaniaHD la pass es:cinemaniahdd.com Aportes recientes:cinemaniahdd.net

Películas relacionadas

descargar La Fuente De La Vida (2006) REMUX 1080p Latino-CMHDD Full 1080p 1080p gratis, La Fuente De La Vida (2006) REMUX 1080p Latino-CMHDD Full 1080p mega 1 link, La Fuente De La Vida (2006) REMUX 1080p Latino-CMHDD Full 1080p pelicula completa, descargar La Fuente De La Vida (2006) REMUX 1080p Latino-CMHDD Full 1080p gratis en mega.

La Fuente De La Vida (2006) REMUX 1080p Latino-CMHDD pelicula full hd, La Fuente De La Vida (2006) REMUX 1080p Latino-CMHDD mega latino, La Fuente De La Vida (2006) REMUX 1080p Latino-CMHDD 4k latino, La Fuente De La Vida (2006) REMUX 1080p Latino-CMHDD pelicula completa, La Fuente De La Vida (2006) REMUX 1080p Latino-CMHDD descargar gratis, descargar La Fuente De La Vida (2006) REMUX 1080p Latino-CMHDD pelicula latino, La Fuente De La Vida (2006) REMUX 1080p Latino-CMHDD 1 link mega, La Fuente De La Vida (2006) REMUX 1080p Latino-CMHDD 1 link google drive, La Fuente De La Vida (2006) REMUX 1080p Latino-CMHDD hd 1080p latino.
Comentarios 0