×

¿Problemas para descargar con Mozilla, EDGE? Deshabilita la opción "Abrir vinculos en una pestaña nueva" tal como lo muestra ésta imagen.

The Forgotten Battle (2021) NF WEB-DL 1080p Latino

161 vistas

Información de The Forgotten Battle (2021) NF WEB-DL 1080p Latino

Datos de la película

  • Calidad: 1080p
  • Audio: Español Latino AC3 2.0
  • Subtitulos: No
  • Resolución:
  • Formato:
  • Codec: H.264
  • Encoder:
  • Mediainfo: Clic para Mostrar Datos Ver
  • The Forgotten Battle (2021) NF WEB-DL 1080p Latino [CNMNHDD].mkv
    Format                      : Matroska
    Format version              : Version 4
    File size                   : 5.35 GiB
    Duration                    : 2 h 7 min
    Overall bit rate mode       : Variable
    Overall bit rate            : 6 004 kb/s
    Movie name                  : The Forgotten Battle (2021) - CinemaniaHDD.Net
    Encoded date                : UTC 2021-10-15 23:34:32
    Writing application         : mkvmerge v44.0.0 ('Domino') 64-bit
    Writing library             : libebml v1.3.10 + libmatroska v1.5.2

    Video
    ID                          : 1
    Format                      : AVC
    Format/Info                 : Advanced Video Codec
    Format profile              : High@L4
    Format settings             : CABAC / 4 Ref Frames
    Format settings, CABAC      : Yes
    Format settings, Reference  : 4 frames
    Codec ID                    : V_MPEG4/ISO/AVC
    Duration                    : 2 h 7 min
    Bit rate mode               : Variable
    Bit rate                    : 5 235 kb/s
    Maximum bit rate            : 20.0 Mb/s
    Width                       : 1 920 pixels
    Height                      : 1 080 pixels
    Display aspect ratio        : 16:9
    Frame rate mode             : Constant
    Frame rate                  : 24.000 FPS
    Color space                 : YUV
    Chroma subsampling          : 4:2:0
    Bit depth                   : 8 bits
    Scan type                   : Progressive
    Bits/(Pixel*Frame)          : 0.105
    Stream size                 : 4.66 GiB (87%)
    Title                       : CinemaniaHDD
    Writing library             : x264 core 148 r2724 dbe0335
    Encoding settings           : cabac=1 / ref=4 / deblock=1:0:0 / analyse=0x3:0x111 / me=umh / subme=10 / psy=1 / psy_rd=1.00:0.00 / mixed_ref=1 / me_range=120 / chroma_me=1 / trellis=2 / 8x8dct=1 / cqm=0 / deadzone=21,11 / fast_pskip=1 / chroma_qp_offset=-2 / threads=8 / lookahead_threads=2 / sliced_threads=0 / nr=0 / decimate=1 / interlaced=0 / bluray_compat=0 / stitchable=1 / constrained_intra=0 / bframes=16 / b_pyramid=2 / b_adapt=2 / b_bias=0 / direct=3 / weightb=1 / open_gop=0 / weightp=2 / keyint=240 / keyint_min=121 / scenecut=0 / intra_refresh=0 / rc_lookahead=240 / rc=crf / mbtree=1 / crf=16.0 / qcomp=0.50 / qpmin=6 / qpmax=51 / qpstep=4 / vbv_maxrate=20000 / vbv_bufsize=25000 / crf_max=0.0 / nal_hrd=vbr / filler=0 / ip_ratio=1.40 / aq=1:0.80
    Default                     : Yes
    Forced                      : No

    Audio #1
    ID                          : 2
    Format                      : E-AC-3
    Format/Info                 : Enhanced AC-3
    Commercial name             : Dolby Digital Plus
    Codec ID                    : A_EAC3
    Duration                    : 2 h 7 min
    Bit rate mode               : Constant
    Bit rate                    : 384 kb/s
    Channel(s)                  : 6 channels
    Channel layout              : L R C LFE Ls Rs
    Sampling rate               : 48.0 kHz
    Frame rate                  : 31.250 FPS (1536 SPF)
    Compression mode            : Lossy
    Stream size                 : 350 MiB (6%)
    Title                       : Español latino [CinemaniaHDD]
    Language                    : Spanish
    Service kind                : Complete Main
    Default                     : Yes
    Forced                      : No

    Audio #2
    ID                          : 3
    Format                      : AC-3
    Format/Info                 : Audio Coding 3
    Commercial name             : Dolby Digital
    Codec ID                    : A_AC3
    Duration                    : 2 h 7 min
    Bit rate mode               : Constant
    Bit rate                    : 384 kb/s
    Channel(s)                  : 6 channels
    Channel layout              : L R C LFE Ls Rs
    Sampling rate               : 48.0 kHz
    Frame rate                  : 31.250 FPS (1536 SPF)
    Compression mode            : Lossy
    Stream size                 : 350 MiB (6%)
    Title                       : Inglés [CinemaniaHDD]
    Language                    : English
    Service kind                : Complete Main
    Default                     : No
    Forced                      : No

    Text #1
    ID                          : 4
    Format                      : UTF-8
    Codec ID                    : S_TEXT/UTF8
    Codec ID/Info               : UTF-8 Plain Text
    Duration                    : 2 h 6 min
    Bit rate                    : 24 b/s
    Count of elements           : 921
    Stream size                 : 22.9 KiB (0%)
    Title                       : Español latino [CinemaniaHDD]
    Language                    : Spanish
    Default                     : No
    Forced                      : No

    Text #2
    ID                          : 5
    Format                      : UTF-8
    Codec ID                    : S_TEXT/UTF8
    Codec ID/Info               : UTF-8 Plain Text
    Duration                    : 2 h 6 min
    Bit rate                    : 9 b/s
    Count of elements           : 373
    Stream size                 : 9.08 KiB (0%)
    Title                       : Forzados [CinemaniaHDD]
    Language                    : Spanish
    Default                     : No
    Forced                      : Yes

     

  • Peso: 5.35 GiB

Sinopsis

Noviembre de 1944. En la isla inundada de Walcheren, Zelanda, miles de soldados aliados luchan contra el ejército alemán. Tres vidas jóvenes están inextricablemente conectadas. Un niño holandés que lucha por los alemanes, un piloto de planeador inglés y una niña de Zelanda conectada a la resistencia contra su voluntad, se ven obligados a tomar decisiones cruciales que afectan tanto su propia libertad como la libertad de los demás.

Ficha técnica

Video trailer de la película

Enlaces de descarga

Rip de Bluray

Descargar The Forgotten Battle (2021) NF WEB-DL 1080p Latino




Aportes de DPeliculasHDmega la pass es:dpeliculashdmega.org Aportes de CinemaniaHD la pass es:cinemaniahdd.com
Guardado en : Bélica , Drama , Historia

Películas relacionadas

descargar The Forgotten Battle (2021) NF WEB-DL 1080p Latino 1080p 1080p gratis, The Forgotten Battle (2021) NF WEB-DL 1080p Latino 1080p mega 1 link, The Forgotten Battle (2021) NF WEB-DL 1080p Latino 1080p pelicula completa, descargar The Forgotten Battle (2021) NF WEB-DL 1080p Latino 1080p gratis en mega.

The Forgotten Battle (2021) NF WEB-DL 1080p Latino pelicula full hd, The Forgotten Battle (2021) NF WEB-DL 1080p Latino mega latino, The Forgotten Battle (2021) NF WEB-DL 1080p Latino 4k latino, The Forgotten Battle (2021) NF WEB-DL 1080p Latino pelicula completa, The Forgotten Battle (2021) NF WEB-DL 1080p Latino descargar gratis, descargar The Forgotten Battle (2021) NF WEB-DL 1080p Latino pelicula latino, The Forgotten Battle (2021) NF WEB-DL 1080p Latino 1 link mega, The Forgotten Battle (2021) NF WEB-DL 1080p Latino 1 link google drive, The Forgotten Battle (2021) NF WEB-DL 1080p Latino hd 1080p latino.
Comentarios 0