×

¿Problemas para descargar con Mozilla, EDGE? Deshabilita la opción "Abrir vinculos en una pestaña nueva" tal como lo muestra ésta imagen.

The Forbidden Kingdom (2008) REMUX 1080p Latino – CMHDD

134 vistas

Información de The Forbidden Kingdom (2008) REMUX 1080p Latino – CMHDD

Datos de la película

  • Calidad: Full 1080p
  • Audio: Español Latino AC3 5.1 BLURAY - Ingles DTS-HD Master 7.1 BLURAY
  • Subtitulos: Español Latino SRT
  • Resolución: 19201080p
  • Formato: MKV
  • Codec: H.264
  • Encoder: Dracarys
  • Mediainfo: Clic para Mostrar Datos Ver
  • Format                      : Matroska
    Format version              : Version 4
    File size                   : 25.9 GiB
    Duration                    : 1 h 44 min
    Overall bit rate mode       : Variable
    Overall bit rate            : 35.5 Mb/s
    Movie name                  : The Forbidden Kingdom (2008) REMUX 1080p Latino - CMHDD
    Encoded date                : UTC 2023-11-22 16:40:21
    Writing application         : mkvmerge v47.0.0 ('Black Flag') 64-bit
    Writing library             : libebml v1.3.10 + libmatroska v1.5.2

    Video
    ID                          : 1
    Format                      : AVC
    Format/Info                 : Advanced Video Codec
    Format profile              : High@L4.1
    Format settings             : CABAC / 4 Ref Frames
    Format settings, CABAC      : Yes
    Format settings, Reference  : 4 frames
    Codec ID                    : V_MPEG4/ISO/AVC
    Duration                    : 1 h 44 min
    Bit rate mode               : Variable
    Bit rate                    : 29.9 Mb/s
    Maximum bit rate            : 33.0 Mb/s
    Width                       : 1 920 pixels
    Height                      : 1 080 pixels
    Display aspect ratio        : 16:9
    Frame rate mode             : Constant
    Frame rate                  : 23.976 (24000/1001) FPS
    Color space                 : YUV
    Chroma subsampling          : 4:2:0
    Bit depth                   : 8 bits
    Scan type                   : Progressive
    Bits/(Pixel*Frame)          : 0.601
    Stream size                 : 21.8 GiB (84%)
    Language                    : English
    Default                     : Yes
    Forced                      : No
    Color range                 : Limited
    Color primaries             : BT.709
    Transfer characteristics    : BT.709
    Matrix coefficients         : BT.709

    Audio #1
    ID                          : 2
    Format                      : AC-3
    Format/Info                 : Audio Coding 3
    Commercial name             : Dolby Digital
    Codec ID                    : A_AC3
    Duration                    : 1 h 44 min
    Bit rate mode               : Constant
    Bit rate                    : 448 kb/s
    Channel(s)                  : 6 channels
    Channel layout              : L R C LFE Ls Rs
    Sampling rate               : 48.0 kHz
    Frame rate                  : 31.250 FPS (1536 SPF)
    Compression mode            : Lossy
    Stream size                 : 335 MiB (1%)
    Language                    : Spanish
    Service kind                : Complete Main
    Default                     : Yes
    Forced                      : No

    Audio #2
    ID                          : 3
    Format                      : DTS XLL
    Format/Info                 : Digital Theater Systems
    Commercial name             : DTS-HD Master Audio
    Codec ID                    : A_DTS
    Duration                    : 1 h 44 min
    Bit rate mode               : Variable
    Bit rate                    : 5 139 kb/s
    Channel(s)                  : 8 channels
    Channel layout              : C L R LFE Lb Rb Lss Rss
    Sampling rate               : 48.0 kHz
    Frame rate                  : 93.750 FPS (512 SPF)
    Bit depth                   : 24 bits
    Compression mode            : Lossless
    Stream size                 : 3.75 GiB (14%)
    Language                    : English
    Default                     : No
    Forced                      : No

    Text
    ID                          : 4
    Format                      : UTF-8
    Codec ID                    : S_TEXT/UTF8
    Codec ID/Info               : UTF-8 Plain Text
    Duration                    : 1 h 32 min
    Bit rate                    : 28 b/s
    Frame rate                  : 0.122 FPS
    Count of elements           : 675
    Stream size                 : 19.1 KiB (0%)
    Language                    : Spanish
    Default                     : No
    Forced                      : No

    Menu
    00:00:00.000                : Warrior Dreams
    00:08:36.432                : Ancient Sword
    00:15:04.904                : Rightful Owner
    00:19:13.152                : Helping Hand
    00:27:29.856                : Drunker Rescue
    00:36:53.586                : A Duel
    00:45:04.660                : "How's Your Kung Fu"
    00:50:27.524                : Teach Me
    00:54:06.952                : Jet And Jackie
    00:59:50.670                : Home
    01:04:47.258                : Two Tigers
    01:09:44.597                : Don't Forget
    01:14:07.651                : The Monastary
    01:21:14.536                : Monkey King's Turn
    01:28:23.423                : "What's wrong?"
    01:32:19.158                : On the Job

     

  • Peso: 25.9 GiB

Sinopsis

Un joven (Michael Angarano), que siente una gran pasión por el cine de Kung Fu, visita regularmente una casa de empeños en Chinatown buscando películas. En una de sus visitas descubre un bastón que ha visto en un sueño recientemente, y más tarde se ve envuelto en un atraco en la misma casa de empeños, tras el cual huye con el bastón. En medio de la huida cae desde una azotea y es milagrosamente transportado a la China medieval donde, con la ayuda del luchador borracho (Jackie Chan), el monje silencioso (Jet Li), y el Gorrion Dorado (Yifei Liu), deberá devolver este bastón al mismo Rey Mono, transformado en una estatua de piedra mucho tiempo atras.

Ficha técnica

Video trailer de la película

Enlaces de descarga

Rip de Bluray

Descargar The Forbidden Kingdom (2008) REMUX 1080p Latino – CMHDD




Aportes de DPeliculasHDmega la pass es:dpeliculashdmega.org Aportes de CinemaniaHD la pass es:cinemaniahdd.com Aportes recientes:cinemaniahdd.net
Guardado en : Acción , Aventura , Fantasía

Películas relacionadas

descargar The Forbidden Kingdom (2008) REMUX 1080p Latino – CMHDD Full 1080p 1080p gratis, The Forbidden Kingdom (2008) REMUX 1080p Latino – CMHDD Full 1080p mega 1 link, The Forbidden Kingdom (2008) REMUX 1080p Latino – CMHDD Full 1080p pelicula completa, descargar The Forbidden Kingdom (2008) REMUX 1080p Latino – CMHDD Full 1080p gratis en mega.

The Forbidden Kingdom (2008) REMUX 1080p Latino – CMHDD pelicula full hd, The Forbidden Kingdom (2008) REMUX 1080p Latino – CMHDD mega latino, The Forbidden Kingdom (2008) REMUX 1080p Latino – CMHDD 4k latino, The Forbidden Kingdom (2008) REMUX 1080p Latino – CMHDD pelicula completa, The Forbidden Kingdom (2008) REMUX 1080p Latino – CMHDD descargar gratis, descargar The Forbidden Kingdom (2008) REMUX 1080p Latino – CMHDD pelicula latino, The Forbidden Kingdom (2008) REMUX 1080p Latino – CMHDD 1 link mega, The Forbidden Kingdom (2008) REMUX 1080p Latino – CMHDD 1 link google drive, The Forbidden Kingdom (2008) REMUX 1080p Latino – CMHDD hd 1080p latino.
Comentarios 0