×

¿Problemas para descargar con Mozilla, EDGE? Deshabilita la opción "Abrir vinculos en una pestaña nueva" tal como lo muestra ésta imagen.

The Fly (1958) REMUX 1080p Latino – CMHDD

8.711 vistas

Información de The Fly (1958) REMUX 1080p Latino – CMHDD

Datos de la película

  • Calidad: Full 1080p
  • Audio: Se especifica abajo de la Sinopsis
  • Subtitulos: Español Latino PGS
  • Resolución: 1920x1080p
  • Formato: MKV
  • Codec: H.264
  • Encoder: Dracarys
  • Mediainfo: Clic para Mostrar Datos Ver
  • Format                      : Matroska
    Format version              : Version 4
    File size                   : 26.9 GiB
    Duration                    : 1 h 33 min
    Overall bit rate mode       : Variable
    Overall bit rate            : 41.0 Mb/s
    Movie name                  : The Fly (1958) REMUX 1080p Latino - CMHDD
    Encoded date                : UTC 2021-07-12 18:05:13
    Writing application         : mkvmerge v56.1.0 ('My Friend') 64-bit
    Writing library             : libebml v1.4.2 + libmatroska v1.6.4
    Cover                       : Yes
    Attachments                 : cover.jpg

    Video
    ID                          : 1
    ID in the original source m : 4113 (0x1011)
    Format                      : AVC
    Format/Info                 : Advanced Video Codec
    Format profile              : High@L4.1
    Format settings             : CABAC / 4 Ref Frames
    Format settings, CABAC      : Yes
    Format settings, Reference  : 4 frames
    Codec ID                    : V_MPEG4/ISO/AVC
    Duration                    : 1 h 33 min
    Bit rate mode               : Variable
    Bit rate                    : 37.9 Mb/s
    Maximum bit rate            : 39.0 Mb/s
    Width                       : 1 920 pixels
    Height                      : 1 080 pixels
    Display aspect ratio        : 16:9
    Frame rate mode             : Constant
    Frame rate                  : 23.976 (24000/1001) FPS
    Color space                 : YUV
    Chroma subsampling          : 4:2:0
    Bit depth                   : 8 bits
    Scan type                   : Progressive
    Bits/(Pixel*Frame)          : 0.762
    Stream size                 : 24.8 GiB (92%)
    Default                     : Yes
    Forced                      : No
    Original source medium      : Blu-ray

    Audio #1
    ID                          : 2
    ID in the original source m : 4352 (0x1100)
    Format                      : DTS XLL
    Format/Info                 : Digital Theater Systems
    Commercial name             : DTS-HD Master Audio
    Codec ID                    : A_DTS
    Duration                    : 1 h 33 min
    Bit rate mode               : Variable
    Bit rate                    : 2 944 kb/s
    Channel(s)                  : 4 channels
    Channel layout              : C L R Cb
    Sampling rate               : 48.0 kHz
    Frame rate                  : 93.750 FPS (512 SPF)
    Bit depth                   : 24 bits
    Compression mode            : Lossless
    Stream size                 : 1.93 GiB (7%)
    Language                    : English
    Default                     : No
    Forced                      : No
    Original source medium      : Blu-ray

    Audio #2
    ID                          : 3
    ID in the original source m : 4353 (0x1101)
    Format                      : AC-3
    Format/Info                 : Audio Coding 3
    Commercial name             : Dolby Digital
    Codec ID                    : A_AC3
    Duration                    : 1 h 33 min
    Bit rate mode               : Constant
    Bit rate                    : 192 kb/s
    Channel(s)                  : 1 channel
    Channel layout              : C
    Sampling rate               : 48.0 kHz
    Frame rate                  : 31.250 FPS (1536 SPF)
    Compression mode            : Lossy
    Stream size                 : 129 MiB (0%)
    Language                    : Spanish
    Service kind                : Complete Main
    Default                     : Yes
    Forced                      : No
    Original source medium      : Blu-ray

    Text
    ID                          : 4
    ID in the original source m : 4609 (0x1201)
    Format                      : PGS
    Muxing mode                 : zlib
    Codec ID                    : S_HDMV/PGS
    Codec ID/Info               : Picture based subtitle format used on BDs/HD-DVDs
    Duration                    : 1 h 33 min
    Bit rate                    : 29.2 kb/s
    Count of elements           : 1822
    Stream size                 : 19.5 MiB (0%)
    Language                    : Spanish
    Default                     : No
    Forced                      : No
    Original source medium      : Blu-ray

    Menu
    00:00:00.000                : Chapter 01
    00:01:34.928                : Chapter 02
    00:06:13.790                : Chapter 03
    00:09:20.935                : Chapter 04
    00:14:41.338                : Chapter 05
    00:17:02.646                : Chapter 06
    00:21:53.270                : Chapter 07
    00:24:17.414                : Chapter 08
    00:28:05.934                : Chapter 09
    00:35:41.097                : Chapter 10
    00:39:38.751                : Chapter 11
    00:44:10.606                : Chapter 12
    00:48:07.551                : Chapter 13
    00:50:45.250                : Chapter 14
    00:52:14.548                : Chapter 15
    00:59:59.345                : Chapter 16
    01:02:25.867                : Chapter 17
    01:08:27.228                : Chapter 18
    01:12:39.605                : Chapter 19
    01:18:43.552                : Chapter 20
    01:21:26.423                : Chapter 21
    01:26:12.167                : Chapter 22
    01:29:24.901                : Chapter 23
    01:32:08.856                : Chapter 24

  • Peso: 26.9 GiB

Sinopsis

El industrial François Delambre es llamado a altas horas de la noche por su cuñada, Helene Delambre, quien le dice que acaba de matar a su marido, André. Reacia al principio, finalmente le explica a la policía que André inventó un aparato de transporte de materia y, mientras experimentaba con él mismo, una mosca entró en la cámara durante la transferencia de materia.

 

Latino: AC3 1.0 –  Ingles: DTS-HD Master Audio 4.0

Ficha técnica

Video trailer de la película

Enlaces de descarga

Rip de Bluray

Descargar The Fly (1958) REMUX 1080p Latino – CMHDD


Aportes de DPeliculasHDmega la pass es:dpeliculashdmega.org Aportes de CinemaniaHD la pass es:cinemaniahdd.com
Guardado en : Ciencia ficción , Drama , Terror

Películas relacionadas

  • Togo (2022) NF WEB-DL 1080p Latino

    Togo (2022) NF WEB-DL 1080p Latino

    2022
    Togo (2022) NF WEB-DL 1080p Latino

    1h 35m 2022

    Descargar Togo (2022) NF WEB-DL 1080p Latino. Los narcos de poca monta están copando las calles de Montevideo...

    Director: Adrián Caetano

    Género: Crimen

    Actores: Tito Prieto

  • El Ultimo Juego (2021) WEB-DL 1080p Latino

    El Ultimo Juego (2021) WEB-DL 1080p Latino

    2021
    El Ultimo Juego (2021) WEB-DL 1080p Latino

    1h 21m 2021

    Descargar El Ultimo Juego (2021) WEB-DL 1080p Latino. 6 extraños se despiertan dentro de una habitación...

    Director: John David Moffat IV

    Género: Drama

    Actores: Yasmin Irvine

  • DC Liga De Supermascotas (2022) HD 1080p Latino

    DC Liga De Supermascotas (2022) HD 1080p Latino

    2022
    DC Liga De Supermascotas (2022) HD 1080p Latino

    1h 45m 2022

    Descargar DC Liga De Supermascotas (2022) HD 1080p Latino. Krypto el Superperro y Superman son amigos...

    Director: Sam Levine

    Género: Acción

    Actores: Yvette Nicole Brown

descargar The Fly (1958) REMUX 1080p Latino – CMHDD Full 1080p 1080p gratis, The Fly (1958) REMUX 1080p Latino – CMHDD Full 1080p mega 1 link, The Fly (1958) REMUX 1080p Latino – CMHDD Full 1080p pelicula completa, descargar The Fly (1958) REMUX 1080p Latino – CMHDD Full 1080p gratis en mega.

The Fly (1958) REMUX 1080p Latino – CMHDD pelicula full hd, The Fly (1958) REMUX 1080p Latino – CMHDD mega latino, The Fly (1958) REMUX 1080p Latino – CMHDD 4k latino, The Fly (1958) REMUX 1080p Latino – CMHDD pelicula completa, The Fly (1958) REMUX 1080p Latino – CMHDD descargar gratis, descargar The Fly (1958) REMUX 1080p Latino – CMHDD pelicula latino, The Fly (1958) REMUX 1080p Latino – CMHDD 1 link mega, The Fly (1958) REMUX 1080p Latino – CMHDD 1 link google drive, The Fly (1958) REMUX 1080p Latino – CMHDD hd 1080p latino.