The Flight Attendant (2021) Primera Temporada HMAX WEB-DL 1080p Latino

36 vistas
1 estrella2 estrellas3 estrellas4 estrellas5 estrellas (1 votos, promedio: 5,00 de 5)
Cargando...

Información de The Flight Attendant (2021) Primera Temporada HMAX WEB-DL 1080p Latino

Datos de la película

  • Calidad: WEBDL
  • Audio: Español Latino AC3 5.1 WEB-DL - Ingles AC3 5.1 WEB-DL
  • Subtitulos: Español Latino SRT- FORZADOS SRT
  • Resolución: 1920x1080
  • Formato: MKV
  • Codec: H.264
  • Encoder: cinemaniahdd
  • Mediainfo: Clic para Mostrar Datos Ver
  • The Flight Attendant T01E01 HMAX WEB-DL 1080p Latino [CNMNHDD].mkv
    Format                      : Matroska
    Format version              : Version 4
    File size                   : 2.82 GiB
    Duration                    : 44 min 52 s
    Overall bit rate mode       : Variable
    Overall bit rate            : 8 996 kb/s
    Movie name                  : The Flight Attendant T01E01 - CinemaniaHDD.Net
    Encoded date                : UTC 2021-05-28 17:47:55
    Writing application         : mkvmerge v56.1.0 ('My Friend') 64-bit
    Writing library             : libebml v1.4.2 + libmatroska v1.6.4

    Video
    ID                          : 1
    Format                      : AVC
    Format/Info                 : Advanced Video Codec
    Format profile              : High@L4
    Format settings             : CABAC / 4 Ref Frames
    Format settings, CABAC      : Yes
    Format settings, Reference  : 4 frames
    Codec ID                    : V_MPEG4/ISO/AVC
    Duration                    : 44 min 52 s
    Bit rate mode               : Variable
    Bit rate                    : 8 250 kb/s
    Maximum bit rate            : 12.4 Mb/s
    Width                       : 1 920 pixels
    Height                      : 1 080 pixels
    Display aspect ratio        : 16:9
    Frame rate mode             : Constant
    Frame rate                  : 23.976 (24000/1001) FPS
    Color space                 : YUV
    Chroma subsampling          : 4:2:0
    Bit depth                   : 8 bits
    Scan type                   : Progressive
    Bits/(Pixel*Frame)          : 0.166
    Stream size                 : 2.58 GiB (91%)
    Title                       : CinemaniaHDD
    Writing library             : x264 core 157 r2965 861cec4
    Encoding settings           : cabac=1 / ref=4 / deblock=1:0:0 / analyse=0x3:0x113 / me=hex / subme=7 / psy=1 / psy_rd=1.00:0.00 / mixed_ref=1 / me_range=16 / chroma_me=1 / trellis=1 / 8x8dct=1 / cqm=0 / deadzone=21,11 / fast_pskip=1 / chroma_qp_offset=-2 / threads=34 / lookahead_threads=5 / sliced_threads=0 / nr=0 / decimate=1 / interlaced=0 / bluray_compat=0 / constrained_intra=0 / bframes=3 / b_pyramid=2 / b_adapt=1 / b_bias=0 / direct=1 / weightb=1 / open_gop=0 / weightp=2 / keyint=96 / keyint_min=96 / scenecut=40 / intra_refresh=0 / rc_lookahead=40 / rc=2pass / mbtree=1 / bitrate=8250 / ratetol=1.0 / qcomp=0.60 / qpmin=0 / qpmax=69 / qpstep=4 / cplxblur=20.0 / qblur=0.5 / vbv_maxrate=12375 / vbv_bufsize=6187 / nal_hrd=vbr / filler=0 / ip_ratio=1.40 / aq=1:1.00
    Language                    : Spanish
    Default                     : Yes
    Forced                      : No
    Color range                 : Limited
    Color primaries             : BT.709
    Transfer characteristics    : BT.709
    Matrix coefficients         : BT.709

    Audio #1
    ID                          : 2
    Format                      : AC-3
    Format/Info                 : Audio Coding 3
    Commercial name             : Dolby Digital
    Codec ID                    : A_AC3
    Duration                    : 44 min 52 s
    Bit rate mode               : Constant
    Bit rate                    : 384 kb/s
    Channel(s)                  : 6 channels
    Channel layout              : L R C LFE Ls Rs
    Sampling rate               : 48.0 kHz
    Frame rate                  : 31.250 FPS (1536 SPF)
    Compression mode            : Lossy
    Stream size                 : 123 MiB (4%)
    Title                       : Español latino [CinemaniaHDD]
    Language                    : Spanish
    Service kind                : Complete Main
    Default                     : Yes
    Forced                      : No

    Audio #2
    ID                          : 3
    Format                      : AC-3
    Format/Info                 : Audio Coding 3
    Commercial name             : Dolby Digital
    Codec ID                    : A_AC3
    Duration                    : 44 min 52 s
    Bit rate mode               : Constant
    Bit rate                    : 384 kb/s
    Channel(s)                  : 6 channels
    Channel layout              : L R C LFE Ls Rs
    Sampling rate               : 48.0 kHz
    Frame rate                  : 31.250 FPS (1536 SPF)
    Compression mode            : Lossy
    Stream size                 : 123 MiB (4%)
    Title                       : Inglés [CinemaniaHDD]
    Language                    : English
    Service kind                : Complete Main
    Default                     : No
    Forced                      : No

    Text #1
    ID                          : 4
    Format                      : UTF-8
    Codec ID                    : S_TEXT/UTF8
    Codec ID/Info               : UTF-8 Plain Text
    Duration                    : 40 min 22 s
    Bit rate                    : 1 b/s
    Count of elements           : 15
    Stream size                 : 469 Bytes (0%)
    Title                       : Forzados [CinemaniaHDD]
    Language                    : Spanish
    Default                     : Yes
    Forced                      : Yes

    Text #2
    ID                          : 5
    Format                      : UTF-8
    Codec ID                    : S_TEXT/UTF8
    Codec ID/Info               : UTF-8 Plain Text
    Duration                    : 44 min 7 s
    Bit rate                    : 62 b/s
    Count of elements           : 653
    Stream size                 : 20.3 KiB (0%)
    Title                       : Español latino [CinemaniaHDD]
    Language                    : Spanish
    Default                     : No
    Forced                      : No

    Text #3
    ID                          : 6
    Format                      : UTF-8
    Codec ID                    : S_TEXT/UTF8
    Codec ID/Info               : UTF-8 Plain Text
    Duration                    : 44 min 30 s
    Bit rate                    : 83 b/s
    Count of elements           : 910
    Stream size                 : 27.1 KiB (0%)
    Title                       : Inglés [CC] [CinemaniaHDD]
    Language                    : English
    Default                     : No
    Forced                      : No

     

  • Peso: 2.82 GiB c/u Aprox ---- 19.6 GiB in 8 Chapters.

Sinopsis

La asistente de vuelo Cassandra Bowden se despierta en su habitación de hotel con resaca de la noche anterior en Dubai con un cadáver a su lado. Temerosa de llamar a la policía, continúa su mañana como si nada. En Nueva York, los agentes del FBI la reciben y la interrogan sobre su reciente escala en Dubai. Aún incapaz de reconstruir la noche, comienza a preguntarse si ella podría ser la asesina.

Ficha técnica

Video trailer de la película

Enlaces de descarga

Rip de Bluray

Descargar The Flight Attendant (2021) Primera Temporada HMAX WEB-DL 1080p Latino




Aportes de DPeliculasHDmega la pass es:dpeliculashdmega.org Aportes de CinemaniaHD la pass es:cinemaniahdd.com
Guardado en : Comedia , Drama , HBOMAX , Misterio , Series

Películas relacionadas

  • Nadie (2021) REMUX 1080p Latino

    Nadie (2021) REMUX 1080p Latino

    2021
    Nadie (2021) REMUX 1080p Latino

    5.0 1h 32m 2021

    Descargar Nadie (2021) REMUX 1080p Latino. Hutch Mansell, un padre de familia que aguanta con resignación...

    Director: Ilya Naishuller

    Género: Acción

    Actores: Yulia Guzhva

  • Locked Down (2021) HMAX WEB-DL 1080p Latino

    Locked Down (2021) HMAX WEB-DL 1080p Latino

    2021
    Locked Down (2021) HMAX WEB-DL 1080p Latino

    5.0 1h 58m 2021

    Linda y Paxton son una pareja con problemas pero que deciden pausar su separación con un objetivo: aprovecharse...

    Director: Sam Barry-Parker

    Género: Comedia

    Actores: Tallulah Greive

  • Annabelle 3: Viene A Casa (2019) Full HD 1080p Latino

    Annabelle 3: Viene A Casa (2019) Full HD 1080p Latino

    2019
    Annabelle 3: Viene A Casa (2019) Full HD 1080p Latino

    5.0 1h 46m 2019

    Descargar Annabelle 3: Viene A Casa (2019) Full HD 1080p Latino. Annabelle Vuelve a Casa es la tercera...

    Director: Gary Dauberman

    Género: FULL 1080p Plateadas

    Actores: Vera Farmiga

The Flight Attendant (2021) Primera Temporada HMAX WEB-DL 1080p Latino pelicula full hd, The Flight Attendant (2021) Primera Temporada HMAX WEB-DL 1080p Latino mega latino, The Flight Attendant (2021) Primera Temporada HMAX WEB-DL 1080p Latino 4k latino, The Flight Attendant (2021) Primera Temporada HMAX WEB-DL 1080p Latino pelicula completa, The Flight Attendant (2021) Primera Temporada HMAX WEB-DL 1080p Latino descargar gratis, descargar The Flight Attendant (2021) Primera Temporada HMAX WEB-DL 1080p Latino pelicula latino, The Flight Attendant (2021) Primera Temporada HMAX WEB-DL 1080p Latino 1 link mega, The Flight Attendant (2021) Primera Temporada HMAX WEB-DL 1080p Latino 1 link google drive, The Flight Attendant (2021) Primera Temporada HMAX WEB-DL 1080p Latino hd 1080p latino.
Comentarios 2
  • last_survivor - 06 junio, 2021

    Amigo buenas noches. Una pregunta, ¿Cuándo subes el capítulo 4?

    • CinemaniaHDD - 06 junio, 2021

      Solo esta en Ingles en la plataforma de streaming de donde lo extraje.