×

¿Problemas para descargar con Mozilla, EDGE? Deshabilita la opción "Abrir vinculos en una pestaña nueva" tal como lo muestra ésta imagen.

The Flash (2016) Temporada 03 REMUX 1080p Latino

177 vistas

Información de The Flash (2016) Temporada 03 REMUX 1080p Latino

Datos de la película

  • Calidad: Full 1080p
  • Audio: Español Latino AC3 2.0 Netflix - Ingles DTS 5.1 BURAY
  • Subtitulos: Español Latino PGS - Ingles PGS
  • Resolución: 1920x1080p
  • Formato: MKV
  • Codec: H.264
  • Encoder: CinefiloCool
  • Mediainfo: Clic para Mostrar Datos Ver
  • The Flash S03E01 (2016) REMUX 1080p Latino-CMHDD.mkv
    Format                      : Matroska
    Format version              : Version 4
    File size                   : 5.43 GiB
    Duration                    : 42 min 35 s
    Overall bit rate mode       : Variable
    Overall bit rate            : 18.3 Mb/s
    Movie name                  : The Flash S03E01 - Flashpoint CinemaniaHDD.Net
    Encoded date                : UTC 2021-09-20 08:21:02
    Writing application         : mkvmerge v56.1.0 ('My Friend') 64-bit
    Writing library             : libebml v1.4.2 + libmatroska v1.6.4
    Attachments                 : CINEMANIAHD.png

    Video
    ID                          : 1
    Format                      : AVC
    Format/Info                 : Advanced Video Codec
    Format profile              : High@L4.1
    Format settings             : CABAC / 4 Ref Frames
    Format settings, CABAC      : Yes
    Format settings, Reference  : 4 frames
    Codec ID                    : V_MPEG4/ISO/AVC
    Duration                    : 42 min 33 s
    Bit rate mode               : Variable
    Bit rate                    : 15.8 Mb/s
    Maximum bit rate            : 32.0 Mb/s
    Width                       : 1 920 pixels
    Height                      : 1 080 pixels
    Display aspect ratio        : 16:9
    Frame rate mode             : Constant
    Frame rate                  : 23.976 (24000/1001) FPS
    Color space                 : YUV
    Chroma subsampling          : 4:2:0
    Bit depth                   : 8 bits
    Scan type                   : Progressive
    Bits/(Pixel*Frame)          : 0.317
    Stream size                 : 4.69 GiB (86%)
    Title                       : REMUX HD1080p [CinemaniaHDD]
    Default                     : Yes
    Forced                      : Yes

    Audio #1
    ID                          : 2
    Format                      : AC-3
    Format/Info                 : Audio Coding 3
    Commercial name             : Dolby Digital
    Codec ID                    : A_AC3
    Duration                    : 42 min 35 s
    Bit rate mode               : Constant
    Bit rate                    : 192 kb/s
    Channel(s)                  : 2 channels
    Channel layout              : L R
    Sampling rate               : 48.0 kHz
    Frame rate                  : 31.250 FPS (1536 SPF)
    Compression mode            : Lossy
    Stream size                 : 58.5 MiB (1%)
    Title                       : Español Latino [CinemaniaHDD]
    Language                    : Spanish
    Service kind                : Complete Main
    Default                     : Yes
    Forced                      : Yes

    Audio #2
    ID                          : 3
    Format                      : DTS XLL
    Format/Info                 : Digital Theater Systems
    Commercial name             : DTS-HD Master Audio
    Codec ID                    : A_DTS
    Duration                    : 42 min 33 s
    Bit rate mode               : Variable
    Bit rate                    : 2 274 kb/s
    Channel(s)                  : 6 channels
    Channel layout              : C L R Ls Rs LFE
    Sampling rate               : 48.0 kHz
    Frame rate                  : 93.750 FPS (512 SPF)
    Bit depth                   : 16 bits
    Compression mode            : Lossless
    Stream size                 : 692 MiB (12%)
    Title                       : Ingles [CinemaniaHDD]
    Language                    : English
    Default                     : No
    Forced                      : No

    Text #1
    ID                          : 4
    Format                      : PGS
    Muxing mode                 : zlib
    Codec ID                    : S_HDMV/PGS
    Codec ID/Info               : Picture based subtitle format used on BDs/HD-DVDs
    Duration                    : 42 min 29 s
    Bit rate                    : 38.8 kb/s
    Count of elements           : 1248
    Stream size                 : 11.8 MiB (0%)
    Title                       : Español-PGS [CinemaniaHDD]
    Language                    : Spanish
    Default                     : No
    Forced                      : No

    Text #2
    ID                          : 5
    Format                      : PGS
    Muxing mode                 : zlib
    Codec ID                    : S_HDMV/PGS
    Codec ID/Info               : Picture based subtitle format used on BDs/HD-DVDs
    Duration                    : 42 min 29 s
    Bit rate                    : 48.3 kb/s
    Count of elements           : 1422
    Stream size                 : 14.7 MiB (0%)
    Title                       : Ingles-PGS [CinemaniaHDD]
    Language                    : English
    Default                     : No
    Forced                      : No

    Menu
    00:00:00.000                : Chapter 1
    00:00:28.028                : Chapter 2
    00:02:32.361                : Chapter 3
    00:10:00.016                : Chapter 4
    00:16:32.783                : Chapter 5
    00:23:54.725                : Chapter 6
    00:30:12.477                : Chapter 7
    00:34:40.078                : Chapter 8
    00:42:05.022                : Chapter 9

  • Peso: 5.40 GiB Aprox. C/U | 124 GiB Total.

Sinopsis

Descargar The Flash (2016) Temporada 03 REMUX 1080p Latino. Sigue las veloces aventuras de Barry Allen, un joven común y corriente con el deseo latente de ayudar a los demás. Cuando una inesperada partícula aceleradora golpea por accidente a Barry, de pronto se encuentra cargado de un increíble poder para moverse a increíbles velocidades. Mientras Barry siempre ha tenido el alma de un héroe, sus nuevos poderes le han dado la capacidad de actuar como tal.

Después de la decisión que Barry tomó al final de la temporada pasada, ahora deberá de lidiar con las consecuencias. La aparición de nuevos villanos metahumanos de otros universos, además de lidiar con un poderoso corredor llamado savitar que se auto proclama como el dios de la velocidad, quien amenaza la vida de Iris. Mientras Caitlin teme que pueda sucumbir a sus poderosas habilidades y Cisco se distancia de Barry después de la muerte de un ser querido. No todo será malo en la vida de Barry, ahora con un mejorado Wally West ayudando a Julian el nuevo forense y a Flash, este problema se convertirá en una carrera contra el tiempo para tratar de evitar el terrible futuro que Barry ya ha visto.

Nota:
Español Latino Editado AC3 2.0 Netflix
la versión de plataforma no cuenta con resumen al inicio de cada episodio, por lo que algunos episodios llevaran el resumen en ingles

Disponible Solo para VIP!! 🙂

Ficha técnica

Video trailer de la película

Enlaces de descarga

Rip de Bluray

Descargar The Flash (2016) Temporada 03 REMUX 1080p Latino


Aportes de DPeliculasHDmega la pass es:dpeliculashdmega.org Aportes de CinemaniaHD la pass es:cinemaniahdd.com

Películas relacionadas

descargar The Flash (2016) Temporada 03 REMUX 1080p Latino Full 1080p 1080p gratis, The Flash (2016) Temporada 03 REMUX 1080p Latino Full 1080p mega 1 link, The Flash (2016) Temporada 03 REMUX 1080p Latino Full 1080p serie completa, descargar The Flash (2016) Temporada 03 REMUX 1080p Latino Full 1080p gratis en mega.

The Flash (2016) Temporada 03 REMUX 1080p Latino pelicula full hd, The Flash (2016) Temporada 03 REMUX 1080p Latino mega latino, The Flash (2016) Temporada 03 REMUX 1080p Latino 4k latino, The Flash (2016) Temporada 03 REMUX 1080p Latino pelicula completa, The Flash (2016) Temporada 03 REMUX 1080p Latino descargar gratis, descargar The Flash (2016) Temporada 03 REMUX 1080p Latino pelicula latino, The Flash (2016) Temporada 03 REMUX 1080p Latino 1 link mega, The Flash (2016) Temporada 03 REMUX 1080p Latino 1 link google drive, The Flash (2016) Temporada 03 REMUX 1080p Latino hd 1080p latino.
Comentarios 0