×

¿Problemas para descargar con Mozilla, EDGE? Deshabilita la opción "Abrir vinculos en una pestaña nueva" tal como lo muestra ésta imagen.

The Flash (2015) Temporada 02 REMUX 1080p Latino

121 vistas

Información de The Flash (2015) Temporada 02 REMUX 1080p Latino

Datos de la película

  • Calidad: Full 1080p
  • Audio: Español Latino AC3 2.0 Netflix - Ingles DTS 5.1 BURAY
  • Subtitulos: Español Latino PGS - Ingles PGS
  • Resolución: 1920x1080p
  • Formato: MKV
  • Codec: H.264
  • Encoder: CinefiloCool
  • Mediainfo: Clic para Mostrar Datos Ver
  • The Flash S02E01 (2015) REMUX 1080p Latino-CMHDD.mkv
    Format                      : Matroska
    Format version              : Version 4
    File size                   : 5.42 GiB
    Duration                    : 42 min 30 s
    Overall bit rate mode       : Variable
    Overall bit rate            : 18.2 Mb/s
    Movie name                  : The Flash S02E01 - The.Man.Who.Saved.Central.City CinemaniaHDD.Net
    Encoded date                : UTC 2021-08-30 05:55:38
    Writing application         : mkvmerge v56.1.0 ('My Friend') 64-bit
    Writing library             : libebml v1.4.2 + libmatroska v1.6.4
    Attachments                 : CINEMANIAHD.png

    Video
    ID                          : 1
    Format                      : AVC
    Format/Info                 : Advanced Video Codec
    Format profile              : High@L4.1
    Format settings             : CABAC / 4 Ref Frames
    Format settings, CABAC      : Yes
    Format settings, Reference  : 4 frames
    Codec ID                    : V_MPEG4/ISO/AVC
    Duration                    : 42 min 30 s
    Bit rate mode               : Variable
    Bit rate                    : 15.7 Mb/s
    Maximum bit rate            : 30.0 Mb/s
    Width                       : 1 920 pixels
    Height                      : 1 080 pixels
    Display aspect ratio        : 16:9
    Frame rate mode             : Constant
    Frame rate                  : 23.976 (24000/1001) FPS
    Color space                 : YUV
    Chroma subsampling          : 4:2:0
    Bit depth                   : 8 bits
    Scan type                   : Progressive
    Bits/(Pixel*Frame)          : 0.317
    Stream size                 : 4.68 GiB (86%)
    Title                       : REMUX HD1080p [CinemaniaHDD]
    Language                    : English
    Default                     : Yes
    Forced                      : Yes

    Audio #1
    ID                          : 2
    Format                      : AC-3
    Format/Info                 : Audio Coding 3
    Commercial name             : Dolby Digital
    Codec ID                    : A_AC3
    Duration                    : 42 min 30 s
    Bit rate mode               : Constant
    Bit rate                    : 192 kb/s
    Channel(s)                  : 2 channels
    Channel layout              : L R
    Sampling rate               : 48.0 kHz
    Frame rate                  : 31.250 FPS (1536 SPF)
    Compression mode            : Lossy
    Stream size                 : 58.4 MiB (1%)
    Title                       : Español Latino [CinemaniaHDD]
    Language                    : Spanish
    Service kind                : Complete Main
    Default                     : Yes
    Forced                      : Yes

    Audio #2
    ID                          : 3
    Format                      : DTS XLL
    Format/Info                 : Digital Theater Systems
    Commercial name             : DTS-HD Master Audio
    Codec ID                    : A_DTS
    Duration                    : 42 min 30 s
    Bit rate mode               : Variable
    Bit rate                    : 2 281 kb/s
    Channel(s)                  : 6 channels
    Channel layout              : C L R Ls Rs LFE
    Sampling rate               : 48.0 kHz
    Frame rate                  : 93.750 FPS (512 SPF)
    Bit depth                   : 16 bits
    Compression mode            : Lossless
    Stream size                 : 693 MiB (12%)
    Title                       : Ingles [CinemaniaHDD]
    Language                    : English
    Default                     : No
    Forced                      : No

    Text #1
    ID                          : 4
    Format                      : PGS
    Muxing mode                 : zlib
    Codec ID                    : S_HDMV/PGS
    Codec ID/Info               : Picture based subtitle format used on BDs/HD-DVDs
    Duration                    : 42 min 26 s
    Bit rate                    : 37.0 kb/s
    Count of elements           : 1083
    Stream size                 : 11.2 MiB (0%)
    Title                       : Español-PGS [CinemaniaHDD]
    Language                    : Spanish
    Default                     : No
    Forced                      : No

    Text #2
    ID                          : 5
    Format                      : PGS
    Muxing mode                 : zlib
    Codec ID                    : S_HDMV/PGS
    Codec ID/Info               : Picture based subtitle format used on BDs/HD-DVDs
    Duration                    : 42 min 25 s
    Bit rate                    : 42.0 kb/s
    Count of elements           : 1224
    Stream size                 : 12.8 MiB (0%)
    Title                       : Ingles-PGS [CinemaniaHDD]
    Language                    : English
    Default                     : No
    Forced                      : No

    Menu
    00:00:00.000                : Chapter 1
    00:01:02.854                : Chapter 2
    00:03:42.514                : Chapter 3
    00:11:54.672                : Chapter 4
    00:16:35.411                : Chapter 5
    00:22:42.653                : Chapter 6
    00:31:18.502                : Chapter 7
    00:35:26.750                : Chapter 8
    00:42:01.728                : Chapter 9

  • Peso: 5.50 GiB Aprox. C/U | 124 GiB Total.

Sinopsis

Descargar The Flash (2015) Temporada 02 REMUX 1080p Latino. Sigue las veloces aventuras de Barry Allen, un joven común y corriente con el deseo latente de ayudar a los demás. Cuando una inesperada partícula aceleradora golpea por accidente a Barry, de pronto se encuentra cargado de un increíble poder para moverse a increíbles velocidades. Mientras Barry siempre ha tenido el alma de un héroe, sus nuevos poderes le han dado la capacidad de actuar como tal.

En la Segunda Temporada de la serie, Cuando el equipo Flash evita que la singularidad sobre Central City destruya todo, se crea un portal en el espacio-tiempo que conecta con otra realidad paralela: Tierra-2. Jay Garrick, el Flash de ese mundo, advierte a Barry del peligro que se aproxima a ellos. Zoom, otro speedster, trata de matar a todos los Flash para ser él el único. Ha estado mandado metahumanos a través de este portal para matar a Barry y ahora lo hará él mismo en persona.

Nota:
Español Latino Editado AC3 2.0 Netflix
la versión de plataforma no cuenta con resumen al inicio de cada episodio, por lo que algunos episodios llevaran el resumen en ingles

Disponible Solo para VIP!! 🙂

Ficha técnica

Video trailer de la película

Enlaces de descarga

Rip de Bluray

Descargar The Flash (2015) Temporada 02 REMUX 1080p Latino


Aportes de DPeliculasHDmega la pass es:dpeliculashdmega.org Aportes de CinemaniaHD la pass es:cinemaniahdd.com

Películas relacionadas

descargar The Flash (2015) Temporada 02 REMUX 1080p Latino Full 1080p 1080p gratis, The Flash (2015) Temporada 02 REMUX 1080p Latino Full 1080p mega 1 link, The Flash (2015) Temporada 02 REMUX 1080p Latino Full 1080p serie completa, descargar The Flash (2015) Temporada 02 REMUX 1080p Latino Full 1080p gratis en mega.

The Flash (2015) Temporada 02 REMUX 1080p Latino pelicula full hd, The Flash (2015) Temporada 02 REMUX 1080p Latino mega latino, The Flash (2015) Temporada 02 REMUX 1080p Latino 4k latino, The Flash (2015) Temporada 02 REMUX 1080p Latino pelicula completa, The Flash (2015) Temporada 02 REMUX 1080p Latino descargar gratis, descargar The Flash (2015) Temporada 02 REMUX 1080p Latino pelicula latino, The Flash (2015) Temporada 02 REMUX 1080p Latino 1 link mega, The Flash (2015) Temporada 02 REMUX 1080p Latino 1 link google drive, The Flash (2015) Temporada 02 REMUX 1080p Latino hd 1080p latino.
Comentarios 0