×

¿Problemas para descargar con Mozilla, EDGE? Deshabilita la opción "Abrir vinculos en una pestaña nueva" tal como lo muestra ésta imagen.

The Flash (2014) Temporada 01 REMUX 1080p Latino

197 vistas

Información de The Flash (2014) Temporada 01 REMUX 1080p Latino

Datos de la película

  • Calidad: Full 1080p
  • Audio: Español Latino AC3 2.0 Netflix - Ingles DTS 5.1 BURAY
  • Subtitulos: Español Latino PGS - Ingles PGS
  • Resolución: 1920x1080p
  • Formato: MKV
  • Codec: H.264
  • Encoder: CinefiloCool
  • Mediainfo: Clic para Mostrar Datos Ver
  • The Flash S01E01 (2014) REMUX 1080p Latino-CMHDD.mkv
    Format                      : Matroska
    Format version              : Version 4
    File size                   : 5.71 GiB
    Duration                    : 44 min 26 s
    Overall bit rate mode       : Variable
    Overall bit rate            : 18.4 Mb/s
    Movie name                  : The Flash S01E01 - Pilot CinemaniaHDD.Net
    Encoded date                : UTC 2021-08-10 05:32:03
    Writing application         : mkvmerge v56.1.0 ('My Friend') 64-bit
    Writing library             : libebml v1.4.2 + libmatroska v1.6.4
    Attachments                 : CINEMANIAHD.png

    Video
    ID                          : 1
    Format                      : AVC
    Format/Info                 : Advanced Video Codec
    Format profile              : High@L4
    Format settings             : CABAC / 2 Ref Frames
    Format settings, CABAC      : Yes
    Format settings, Reference  : 2 frames
    Format settings, GOP        : M=1, N=10
    Codec ID                    : V_MPEG4/ISO/AVC
    Duration                    : 44 min 25 s
    Bit rate mode               : Variable
    Bit rate                    : 15.9 Mb/s
    Width                       : 1 920 pixels
    Height                      : 1 080 pixels
    Display aspect ratio        : 16:9
    Frame rate mode             : Constant
    Frame rate                  : 23.976 (24000/1001) FPS
    Color space                 : YUV
    Chroma subsampling          : 4:2:0
    Bit depth                   : 8 bits
    Scan type                   : Progressive
    Bits/(Pixel*Frame)          : 0.320
    Stream size                 : 4.94 GiB (87%)
    Title                       : REMUX HD1080p [CinemaniaHDD]
    Default                     : Yes
    Forced                      : No

    Audio #1
    ID                          : 2
    Format                      : AC-3
    Format/Info                 : Audio Coding 3
    Commercial name             : Dolby Digital
    Codec ID                    : A_AC3
    Duration                    : 44 min 25 s
    Bit rate mode               : Constant
    Bit rate                    : 192 kb/s
    Channel(s)                  : 2 channels
    Channel layout              : L R
    Sampling rate               : 48.0 kHz
    Frame rate                  : 31.250 FPS (1536 SPF)
    Compression mode            : Lossy
    Stream size                 : 61.0 MiB (1%)
    Title                       : Español Latino [CinemaniaHDD]
    Language                    : Spanish
    Service kind                : Complete Main
    Default                     : Yes
    Forced                      : No

    Audio #2
    ID                          : 3
    Format                      : DTS XLL
    Format/Info                 : Digital Theater Systems
    Commercial name             : DTS-HD Master Audio
    Codec ID                    : A_DTS
    Duration                    : 44 min 26 s
    Bit rate mode               : Variable
    Bit rate                    : 2 248 kb/s
    Channel(s)                  : 6 channels
    Channel layout              : C L R Ls Rs LFE
    Sampling rate               : 48.0 kHz
    Frame rate                  : 93.750 FPS (512 SPF)
    Bit depth                   : 16 bits
    Compression mode            : Lossless
    Stream size                 : 715 MiB (12%)
    Title                       : Ingles [CinemaniaHDD]
    Language                    : English
    Default                     : No
    Forced                      : No

    Text #1
    ID                          : 4
    Format                      : PGS
    Muxing mode                 : zlib
    Codec ID                    : S_HDMV/PGS
    Codec ID/Info               : Picture based subtitle format used on BDs/HD-DVDs
    Duration                    : 44 min 18 s
    Bit rate                    : 36.5 kb/s
    Count of elements           : 1170
    Stream size                 : 11.6 MiB (0%)
    Title                       : Español-PGS [CinemaniaHDD]
    Language                    : Spanish
    Default                     : No
    Forced                      : No

    Text #2
    ID                          : 5
    Format                      : PGS
    Muxing mode                 : zlib
    Codec ID                    : S_HDMV/PGS
    Codec ID/Info               : Picture based subtitle format used on BDs/HD-DVDs
    Duration                    : 44 min 18 s
    Bit rate                    : 37.6 kb/s
    Count of elements           : 1206
    Stream size                 : 11.9 MiB (0%)
    Title                       : Ingles-PGS [CinemaniaHDD]
    Language                    : English
    Default                     : No
    Forced                      : No

    Menu
    00:00:00.000                : 00:00:00.000
    00:11:56.049                : 00:11:56.049
    00:18:49.378                : 00:18:49.378
    00:26:05.314                : 00:26:05.314
    00:32:51.136                : 00:32:51.136
    00:38:57.961                : 00:38:57.961
    00:43:56.342                : 00:43:56.342

  • Peso: 5.50 GiB Aprox. C/U | 126 GiB Total.

Sinopsis

Descargar The Flash (2014) Temporada 01 REMUX 1080p Latino. Sigue las veloces aventuras de Barry Allen, un joven común y corriente con el deseo latente de ayudar a los demás. Cuando una inesperada partícula aceleradora golpea por accidente a Barry, de pronto se encuentra cargado de un increíble poder para moverse a increíbles velocidades. Mientras Barry siempre ha tenido el alma de un héroe, sus nuevos poderes le han dado la capacidad de actuar como tal.

En la primer temporada de La Serie Barry Allen intentará hallar al asesino de su madre mientras su alter ego metahumano, Flash, protege a Central City de los villanos. Barry Allen, un investigador forense en el departamento de policía, es alcanzado por un rayo que le da el poder de la super velocidad. Tratando de aumentar su ventaja contra los villanos, Barry se une a Cisco Ramon, Caitlin Snow y el misterioso Harrison Wells en los laboratorios S.T.A.R. Las cosas, aunque difíciles, parecen estar funcionando para el equipo, hasta que aparece un rayo amarillo, quien es conocido como el Flash Reverso.

Nota:
Español Latino Editado AC3 2.0 Netflix
la versión de plataforma no cuenta con resumen al inicio de cada episodio, por lo que algunos episodios llevaran el resumen en ingles

Disponible Solo para VIP!! 🙂

Ficha técnica

Video trailer de la película

Enlaces de descarga

Rip de Bluray

Descargar The Flash (2014) Temporada 01 REMUX 1080p Latino


Aportes de DPeliculasHDmega la pass es:dpeliculashdmega.org Aportes de CinemaniaHD la pass es:cinemaniahdd.com

Películas relacionadas

  • Noche sin paz (2022) REMUX 1080p Latino

    Noche sin paz (2022) REMUX 1080p Latino

    2022
    Noche sin paz (2022) REMUX 1080p Latino

    1h 41m 2022

    Descargar Noche sin paz (2022) REMUX 1080p Latino. Cuando un equipo de mercenarios irrumpe en Nochebuena...

    Director: Tyshana Hobson

    Género: Acción

    Actores: Yoon Cha-Lee

  • Narvik (2022) NF WEB-DL 1080p Latino

    Narvik (2022) NF WEB-DL 1080p Latino

    2022
    Narvik (2022) NF WEB-DL 1080p Latino

    1h 48m 2022

    Descargar Narvik (2022) NF WEB-DL 1080p Latino. Abril de 1940. Los ojos del mundo están puestos en Narvik,...

    Director: Suzanne Svae-Johansen

    Género: Acción

    Actores: Torfinn Nag

  • Groundhog Day (1993) REMUX 4K HDR Latino – CMHDD

    Groundhog Day (1993) REMUX 4K HDR Latino – CMHDD

    1993
    Groundhog Day (1993) REMUX 4K HDR Latino – CMHDD

    1h 41m 1993

    Phil, hombre del tiempo de una cadena de televisión, es enviado un año más a Punxstawnwey, a cubrir...

    Director: Sam Hoffman

    Género: Comedia

    Actores: Willie Garson

descargar The Flash (2014) Temporada 01 REMUX 1080p Latino Full 1080p 1080p gratis, The Flash (2014) Temporada 01 REMUX 1080p Latino Full 1080p mega 1 link, The Flash (2014) Temporada 01 REMUX 1080p Latino Full 1080p pelicula completa, descargar The Flash (2014) Temporada 01 REMUX 1080p Latino Full 1080p gratis en mega.

The Flash (2014) Temporada 01 REMUX 1080p Latino pelicula full hd, The Flash (2014) Temporada 01 REMUX 1080p Latino mega latino, The Flash (2014) Temporada 01 REMUX 1080p Latino 4k latino, The Flash (2014) Temporada 01 REMUX 1080p Latino pelicula completa, The Flash (2014) Temporada 01 REMUX 1080p Latino descargar gratis, descargar The Flash (2014) Temporada 01 REMUX 1080p Latino pelicula latino, The Flash (2014) Temporada 01 REMUX 1080p Latino 1 link mega, The Flash (2014) Temporada 01 REMUX 1080p Latino 1 link google drive, The Flash (2014) Temporada 01 REMUX 1080p Latino hd 1080p latino.
Comentarios 0