×

¿Problemas para descargar con Mozilla, EDGE? Deshabilita la opción "Abrir vinculos en una pestaña nueva" tal como lo muestra ésta imagen.

The Firm (1993) REMUX 4K HDR Latino – CMHDD

123 vistas

Información de The Firm (1993) REMUX 4K HDR Latino – CMHDD

Datos de la película

  • Calidad:
  • Audio: Español Latino AC3 5.1 BLURAY - Ingles DTS 5.1 BLURAY
  • Subtitulos: Español Latino PGS
  • Resolución: 3840x2160p
  • Formato: MKV
  • Codec: H.264
  • Encoder: Dracarys
  • Mediainfo: Clic para Mostrar Datos Ver
  • Format                      : Matroska
    Format version              : Version 4
    File size                   : 53.3 GiB
    Duration                    : 2 h 34 min
    Overall bit rate mode       : Variable
    Overall bit rate            : 49.3 Mb/s
    Movie name                  : The Firm (1993) REMUX 4K HDR Latino - CMHDD
    Encoded date                : UTC 2023-10-01 22:56:37
    Writing application         : mkvmerge v47.0.0 ('Black Flag') 64-bit
    Writing library             : libebml v1.3.10 + libmatroska v1.5.2

    Video
    ID                          : 1
    Format                      : HEVC
    Format/Info                 : High Efficiency Video Coding
    Format profile              : Main 10@L5.1@High
    HDR format                  : SMPTE ST 2086, HDR10 compatible
    Codec ID                    : V_MPEGH/ISO/HEVC
    Duration                    : 2 h 34 min
    Bit rate                    : 45.1 Mb/s
    Width                       : 3 840 pixels
    Height                      : 2 160 pixels
    Display aspect ratio        : 16:9
    Frame rate mode             : Constant
    Frame rate                  : 23.976 (24000/1001) FPS
    Color space                 : YUV
    Chroma subsampling          : 4:2:0 (Type 2)
    Bit depth                   : 10 bits
    Bits/(Pixel*Frame)          : 0.227
    Stream size                 : 48.7 GiB (91%)
    Default                     : Yes
    Forced                      : No
    Color range                 : Limited
    Color primaries             : BT.2020
    Transfer characteristics    : PQ
    Matrix coefficients         : BT.2020 non-constant
    Mastering display color pri : Display P3
    Mastering display luminance : min: 0.0001 cd/m2, max: 1000 cd/m2

    Audio #1
    ID                          : 2
    Format                      : DTS XLL
    Format/Info                 : Digital Theater Systems
    Commercial name             : DTS-HD Master Audio
    Codec ID                    : A_DTS
    Duration                    : 2 h 34 min
    Bit rate mode               : Variable
    Bit rate                    : 3 616 kb/s
    Channel(s)                  : 6 channels
    Channel layout              : C L R Ls Rs LFE
    Sampling rate               : 48.0 kHz
    Frame rate                  : 93.750 FPS (512 SPF)
    Bit depth                   : 24 bits
    Compression mode            : Lossless
    Delay relative to video     : 4 ms
    Stream size                 : 3.90 GiB (7%)
    Title                       : DTS-HD MA 5.1
    Language                    : English
    Default                     : No
    Forced                      : No

    Audio #2
    ID                          : 3
    Format                      : AC-3
    Format/Info                 : Audio Coding 3
    Commercial name             : Dolby Digital
    Codec ID                    : A_AC3
    Duration                    : 2 h 34 min
    Bit rate mode               : Constant
    Bit rate                    : 640 kb/s
    Channel(s)                  : 6 channels
    Channel layout              : L R C LFE Ls Rs
    Sampling rate               : 48.0 kHz
    Frame rate                  : 31.250 FPS (1536 SPF)
    Compression mode            : Lossy
    Delay relative to video     : 4 ms
    Stream size                 : 707 MiB (1%)
    Language                    : Spanish
    Service kind                : Complete Main
    Default                     : Yes
    Forced                      : No

    Text
    ID                          : 4
    Format                      : PGS
    Muxing mode                 : zlib
    Codec ID                    : S_HDMV/PGS
    Codec ID/Info               : Picture based subtitle format used on BDs/HD-DVDs
    Duration                    : 2 h 30 min
    Bit rate                    : 29.5 kb/s
    Frame rate                  : 0.325 FPS
    Count of elements           : 2928
    Stream size                 : 31.7 MiB (0%)
    Language                    : Spanish
    Default                     : No
    Forced                      : No

    Menu
    00:00:00.000                : en:Opening Credits
    00:02:33.028                : en:We Want You
    00:09:38.703                : en:The Family
    00:13:26.055                : en:Your New Home
    00:15:13.496                : en:Day One
    00:22:52.913                : en:Dead Lawyers
    00:26:15.199                : en:Chance Meeting
    00:32:19.688                : en:The Caymans
    00:46:06.180                : en:Family Matters
    00:49:53.991                : en:Private Eye
    00:57:09.051                : en:It's Time to Talk
    01:06:48.421                : en:The Firm is Listening
    01:15:11.006                : en:The Death of Love and Trust
    01:25:47.059                : en:The Plan
    01:38:32.073                : en:The Cayman Files
    02:01:50.887                : en:Killing Time
    02:17:26.488                : en:Ruth is Right
    02:24:08.682                : en:Promises Kept
    02:30:52.126                : en:End Credits

     

  • Peso: 53.3 GiB

Sinopsis

Mitch McDeere, un joven y brillante abogado recién salido de la facultad de Harvard, se deja seducir por las promesas y regalos de un prestigioso bufete de abogados de Memphis. Sin embargo, muy pronto tendrá razones para empezar a sospechar que algo extraño está sucediendo en la poderosa empresa.

Ficha técnica

Video trailer de la película

Enlaces de descarga

Rip de Bluray

Descargar The Firm (1993) REMUX 4K HDR Latino – CMHDD


Aportes de DPeliculasHDmega la pass es:dpeliculashdmega.org Aportes de CinemaniaHD la pass es:cinemaniahdd.com Aportes recientes:cinemaniahdd.net
Guardado en : Drama , Misterio , Suspenso

Películas relacionadas

descargar The Firm (1993) REMUX 4K HDR Latino – CMHDD 1080p gratis, The Firm (1993) REMUX 4K HDR Latino – CMHDD mega 1 link, The Firm (1993) REMUX 4K HDR Latino – CMHDD pelicula completa, descargar The Firm (1993) REMUX 4K HDR Latino – CMHDD gratis en mega.

The Firm (1993) REMUX 4K HDR Latino – CMHDD pelicula full hd, The Firm (1993) REMUX 4K HDR Latino – CMHDD mega latino, The Firm (1993) REMUX 4K HDR Latino – CMHDD 4k latino, The Firm (1993) REMUX 4K HDR Latino – CMHDD pelicula completa, The Firm (1993) REMUX 4K HDR Latino – CMHDD descargar gratis, descargar The Firm (1993) REMUX 4K HDR Latino – CMHDD pelicula latino, The Firm (1993) REMUX 4K HDR Latino – CMHDD 1 link mega, The Firm (1993) REMUX 4K HDR Latino – CMHDD 1 link google drive, The Firm (1993) REMUX 4K HDR Latino – CMHDD hd 1080p latino.
Comentarios 0