×

¿Problemas para descargar con Mozilla, EDGE? Deshabilita la opción "Abrir vinculos en una pestaña nueva" tal como lo muestra ésta imagen.

The Fighter (2010) 1080p Latino

315 vistas

Información de The Fighter (2010) 1080p Latino

Datos de la película

  • Calidad: 1080p
  • Audio: Se especifica abajo de la Sinopsis
  • Subtitulos: Español Latino SRT - Ingles SRT
  • Resolución: 1920x800p
  • Formato: MKV
  • Codec: H.264
  • Encoder: CinefiloCool
  • Mediainfo: Clic para Mostrar Datos Ver
  • El Peleador (2010) 1080p Latino-CMHDD.mkv
    Format                      : Matroska
    Format version              : Version 4
    File size                   : 3.80 GiB
    Duration                    : 1 h 55 min
    Overall bit rate            : 4 706 kb/s
    Movie name                  : The Fighter (2010) CinemaniaHDD.Net
    Encoded date                : UTC 2020-10-10 04:48:23
    Writing application         : mkvmerge v51.0.0 ('I Wish') 64-bit
    Writing library             : libebml v1.4.0 + libmatroska v1.6.2
    Attachments                 : CINEMANIAHD.png

    Video
    ID                          : 1
    Format                      : AVC
    Format/Info                 : Advanced Video Codec
    Format profile              : High@L4.1
    Format settings             : CABAC / 5 Ref Frames
    Format settings, CABAC      : Yes
    Format settings, Reference  : 5 frames
    Codec ID                    : V_MPEG4/ISO/AVC
    Duration                    : 1 h 55 min
    Bit rate                    : 4 000 kb/s
    Width                       : 1 920 pixels
    Height                      : 800 pixels
    Display aspect ratio        : 2.40:1
    Frame rate mode             : Constant
    Frame rate                  : 23.976 (24000/1001) FPS
    Color space                 : YUV
    Chroma subsampling          : 4:2:0
    Bit depth                   : 8 bits
    Scan type                   : Progressive
    Bits/(Pixel*Frame)          : 0.109
    Stream size                 : 3.23 GiB (85%)
    Title                       : HD1080p [CinemaniaHDD]
    Writing library             : x264 core 157 r2935 545de2f
    Encoding settings           : cabac=1 / ref=5 / deblock=1:-2:-2 / analyse=0x3:0x133 / me=umh / subme=9 / psy=1 / psy_rd=1.00:0.25 / mixed_ref=1 / me_range=16 / chroma_me=1 / trellis=2 / 8x8dct=1 / cqm=0 / deadzone=6,6 / fast_pskip=1 / chroma_qp_offset=-4 / threads=24 / lookahead_threads=2 / sliced_threads=0 / nr=0 / decimate=0 / interlaced=0 / bluray_compat=0 / constrained_intra=0 / bframes=3 / b_pyramid=2 / b_adapt=2 / b_bias=0 / direct=3 / weightb=1 / open_gop=0 / weightp=2 / keyint=240 / keyint_min=24 / scenecut=40 / intra_refresh=0 / rc_lookahead=60 / rc=2pass / mbtree=1 / bitrate=4000 / ratetol=1.0 / qcomp=0.80 / qpmin=0 / qpmax=69 / qpstep=4 / cplxblur=20.0 / qblur=0.5 / vbv_maxrate=62500 / vbv_bufsize=78125 / nal_hrd=none / filler=0 / ip_ratio=1.10 / aq=1:0.50
    Default                     : Yes
    Forced                      : Yes
    Color range                 : Limited
    Color primaries             : BT.709
    Transfer characteristics    : BT.709
    Matrix coefficients         : BT.709

    Audio #1
    ID                          : 2
    Format                      : AC-3
    Format/Info                 : Audio Coding 3
    Commercial name             : Dolby Digital
    Codec ID                    : A_AC3
    Duration                    : 1 h 55 min
    Bit rate mode               : Constant
    Bit rate                    : 256 kb/s
    Channel(s)                  : 2 channels
    Channel layout              : L R
    Sampling rate               : 48.0 kHz
    Frame rate                  : 31.250 FPS (1536 SPF)
    Compression mode            : Lossy
    Delay relative to video     : -5 ms
    Stream size                 : 212 MiB (5%)
    Title                       : Español Latino VM [CinemaniaHDD]
    Language                    : Spanish
    Service kind                : Complete Main
    Default                     : Yes
    Forced                      : Yes

    Audio #2
    ID                          : 3
    Format                      : AC-3
    Format/Info                 : Audio Coding 3
    Commercial name             : Dolby Digital
    Codec ID                    : A_AC3
    Duration                    : 1 h 55 min
    Bit rate mode               : Constant
    Bit rate                    : 448 kb/s
    Channel(s)                  : 6 channels
    Channel layout              : L R C LFE Ls Rs
    Sampling rate               : 48.0 kHz
    Frame rate                  : 31.250 FPS (1536 SPF)
    Compression mode            : Lossy
    Delay relative to video     : -5 ms
    Stream size                 : 371 MiB (10%)
    Title                       : Ingles [CinemaniaHDD]
    Language                    : English
    Service kind                : Complete Main
    Default                     : No
    Forced                      : No

    Text #1
    ID                          : 4
    Format                      : UTF-8
    Codec ID                    : S_TEXT/UTF8
    Codec ID/Info               : UTF-8 Plain Text
    Duration                    : 1 h 36 min
    Bit rate                    : 0 b/s
    Count of elements           : 15
    Stream size                 : 434 Bytes (0%)
    Title                       : Forzados-SRT [CinemaniaHDD]
    Language                    : Spanish
    Default                     : Yes
    Forced                      : Yes

    Text #2
    ID                          : 5
    Format                      : UTF-8
    Codec ID                    : S_TEXT/UTF8
    Codec ID/Info               : UTF-8 Plain Text
    Duration                    : 1 h 51 min
    Bit rate                    : 70 b/s
    Count of elements           : 1668
    Stream size                 : 57.7 KiB (0%)
    Title                       : Español-SRT [CinemaniaHDD]
    Language                    : Spanish
    Default                     : No
    Forced                      : No

    Text #3
    ID                          : 6
    Format                      : UTF-8
    Codec ID                    : S_TEXT/UTF8
    Codec ID/Info               : UTF-8 Plain Text
    Duration                    : 1 h 51 min
    Bit rate                    : 84 b/s
    Count of elements           : 1665
    Stream size                 : 68.4 KiB (0%)
    Title                       : Ingles-SRT [CinemaniaHDD]
    Language                    : English
    Default                     : No
    Forced                      : No

    Menu
    00:00:00.000                : en:Chapter 1
    00:07:11.181                : en:Chapter 2
    00:16:34.202                : en:Chapter 3
    00:22:32.351                : en:Chapter 4
    00:28:34.755                : en:Chapter 5
    00:36:20.678                : en:Chapter 6
    00:43:16.803                : en:Chapter 7
    00:51:54.945                : en:Chapter 8
    01:00:48.144                : en:Chapter 9
    01:07:08.274                : en:Chapter 10
    01:13:04.463                : en:Chapter 11
    01:20:43.505                : en:Chapter 12
    01:25:03.890                : en:Chapter 13
    01:33:54.045                : en:Chapter 14
    01:40:13.758                : en:Chapter 15
    01:50:18.529                : en:Chapter 16

  • Peso: 3.80 GiB

Sinopsis

Descargar The Fighter [El Peleador/El Ganador] (2010) 1080p Latino. Massachusetts, años 80. Dicky Eklund (Bale), un boxeador conflictivo pero con talento, intenta redimirse entrenando a su hermano menor. En sus buenos tiempos había sido el orgullo de la ciudad de Lowell, en Massachusetts, por haber tumbado una vez al campeón del mundo Sugar Ray Leonard; pero después vinieron los tiempos difíciles en los que se hundió en una peligrosa mezcla de drogas y delincuencia. Mientras tanto, su hermano Micky Ward (Mark Wahlberg) se ha convertido en una promesa del boxeo, y las riendas de su carrera las lleva su madre (Melissa Leo). Sin embargo, a pesar de su potente gancho de izquierdas, siempre acaba derrotado. Tras un combate que nunca debió celebrarse, Micky decide seguir el consejo de su novia Charlene (Amy Adams) y alejarse de su familia.

Audio Español Latino AC3 2.0 Doblaje Videomax – Ingles AC3 5.1 Bluray

Ficha técnica

Video trailer de la película

Enlaces de descarga

Rip de Bluray

Descargar The Fighter (2010) 1080p Latino




Aportes de DPeliculasHDmega la pass es:dpeliculashdmega.org Aportes de CinemaniaHD la pass es:cinemaniahdd.com
Guardado en : Drama , HD 1080p

Películas relacionadas

descargar The Fighter (2010) 1080p Latino 1080p 1080p gratis, The Fighter (2010) 1080p Latino 1080p mega 1 link, The Fighter (2010) 1080p Latino 1080p pelicula completa, descargar The Fighter (2010) 1080p Latino 1080p gratis en mega.

The Fighter (2010) 1080p Latino pelicula full hd, The Fighter (2010) 1080p Latino mega latino, The Fighter (2010) 1080p Latino 4k latino, The Fighter (2010) 1080p Latino pelicula completa, The Fighter (2010) 1080p Latino descargar gratis, descargar The Fighter (2010) 1080p Latino pelicula latino, The Fighter (2010) 1080p Latino 1 link mega, The Fighter (2010) 1080p Latino 1 link google drive, The Fighter (2010) 1080p Latino hd 1080p latino.
Comentarios 0