×

¿Problemas para descargar con Mozilla, EDGE? Deshabilita la opción "Abrir vinculos en una pestaña nueva" tal como lo muestra ésta imagen.

The Field Guide to Evil (2018) 1080p Latino

844 vistas

Información de The Field Guide to Evil (2018) 1080p Latino

Datos de la película

  • Calidad: 1080p
  • Audio: Español Latino AC3 2.0 iTUNES - Ingles AC3 5.1 BLURAY
  • Subtitulos: Español Latino SRT
  • Resolución: 1920x800
  • Formato: MKV
  • Codec: H.264
  • Encoder: cinemaniahd
  • Mediainfo: Clic para Mostrar Datos Ver
  • The Field Guide To Evil (2018) 1080p Latino.mkv
    Format                      : Matroska
    Format version              : Version 4
    File size                   :
    Duration                    : 1 h 57 min
    Overall bit rate            : 4 116 kb/s
    Encoded date                : UTC 2020-04-01 18:38:13
    Writing application         : mkvmerge v42.0.0 ('Overtime') 64-bit
    Writing library             : libebml v1.3.10 + libmatroska v1.5.2 / Lavf58.20.100

    Video
    ID                          : 1
    Format                      : AVC
    Format/Info                 : Advanced Video Codec
    Format profile              : High@L4.1
    Format settings             : CABAC / 4 Ref Frames
    Format settings, CABAC      : Yes
    Format settings, ReFrames   : 4 frames
    Codec ID                    : V_MPEG4/ISO/AVC
    Duration                    : 1 h 57 min
    Bit rate                    : 3 500 kb/s
    Width                       : 1 920 pixels
    Height                      : 1 080 pixels
    Display aspect ratio        : 16:9
    Frame rate mode             : Constant
    Frame rate                  : 23.976 (24000/1001) FPS
    Color space                 : YUV
    Chroma subsampling          : 4:2:0
    Bit depth                   : 8 bits
    Scan type                   : Progressive
    Bits/(Pixel*Frame)          : 0.070
    Stream size                 : 2.81 GiB (83%)
    Writing library             : x264 core 157 r2935 545de2f
    Encoding settings           : cabac=1 / ref=4 / deblock=1:0:0 / analyse=0x3:0x113 / me=hex / subme=8 / psy=1 / psy_rd=1.00:0.00 / mixed_ref=1 / me_range=16 / chroma_me=1 / trellis=2 / 8x8dct=1 / cqm=0 / deadzone=21,11 / fast_pskip=1 / chroma_qp_offset=-2 / threads=34 / lookahead_threads=5 / sliced_threads=0 / nr=0 / decimate=1 / interlaced=0 / bluray_compat=0 / constrained_intra=0 / bframes=3 / b_pyramid=2 / b_adapt=1 / b_bias=0 / direct=3 / weightb=1 / open_gop=0 / weightp=2 / keyint=240 / keyint_min=24 / scenecut=40 / intra_refresh=0 / rc_lookahead=50 / rc=abr / mbtree=1 / bitrate=3500 / ratetol=1.0 / qcomp=0.60 / qpmin=0 / qpmax=69 / qpstep=4 / vbv_maxrate=62500 / vbv_bufsize=78125 / nal_hrd=none / filler=0 / ip_ratio=1.40 / aq=1:1.00
    Default                     : Yes
    Forced                      : No
    Color range                 : Limited
    Color primaries             : BT.709
    Transfer characteristics    : BT.709
    Matrix coefficients         : BT.709

    Audio #1
    ID                          : 2
    Format                      : AC-3
    Format/Info                 : Audio Coding 3
    Commercial name             : Dolby Digital
    Codec ID                    : A_AC3
    Duration                    : 1 h 57 min
    Bit rate mode               : Constant
    Bit rate                    : 256 kb/s
    Channel(s)                  : 2 channels
    Channel layout              : L R
    Sampling rate               : 48.0 kHz
    Frame rate                  : 31.250 FPS (1536 SPF)
    Bit depth                   : 16 bits
    Compression mode            : Lossy
    Delay relative to video     : -5 ms
    Stream size                 : 216 MiB (6%)
    Service kind                : Complete Main
    Default                     : Yes
    Forced                      : No

    Audio #2
    ID                          : 3
    Format                      : AC-3
    Format/Info                 : Audio Coding 3
    Commercial name             : Dolby Digital
    Codec ID                    : A_AC3
    Duration                    : 1 h 57 min
    Bit rate mode               : Constant
    Bit rate                    : 448 kb/s
    Channel(s)                  : 6 channels
    Channel layout              : L R C LFE Ls Rs
    Sampling rate               : 48.0 kHz
    Frame rate                  : 31.250 FPS (1536 SPF)
    Bit depth                   : 16 bits
    Compression mode            : Lossy
    Delay relative to video     : -5 ms
    Stream size                 : 378 MiB (11%)
    Title                       : Surround
    Language                    : English
    Service kind                : Complete Main
    Default                     : No
    Forced                      : No

    Text
    ID                          : 4
    Format                      : UTF-8
    Codec ID                    : S_TEXT/UTF8
    Codec ID/Info               : UTF-8 Plain Text
    Duration                    : 1 h 47 min
    Bit rate                    : 23 b/s
    Count of elements           : 548
    Stream size                 : 18.5 KiB (0%)
    Default                     : Yes
    Forced                      : No

    Menu
    00:00:00.000                : :00:00:00.000
    00:22:39.400                : :00:22:39.358
    00:36:35.276                : :00:36:35.193
    00:59:18.555                : :00:59:18.555
    01:11:30.411                : :01:11:30.286
    01:22:48.046                : :01:22:47.963
    01:34:33.793                : :01:34:33.668
    01:47:17.556                : :01:47:17.431

  • Peso: 3.39 GiB

Sinopsis

Descargar The Field Guide to Evil (2018) 1080p Latino. Película de episodios, en la que se exploran mitos, cultura y folklore desde el punto de vista de varios directores internacionales de cine fantástico y de terror.

Ficha técnica

Video trailer de la película

Enlaces de descarga

Rip de Bluray

Descargar The Field Guide to Evil (2018) 1080p Latino




Aportes de DPeliculasHDmega la pass es:dpeliculashdmega.org Aportes de CinemaniaHD la pass es:cinemaniahdd.com
Guardado en : HD 1080p , Terror

Películas relacionadas

descargar The Field Guide to Evil (2018) 1080p Latino 1080p 1080p gratis, The Field Guide to Evil (2018) 1080p Latino 1080p mega 1 link, The Field Guide to Evil (2018) 1080p Latino 1080p pelicula completa, descargar The Field Guide to Evil (2018) 1080p Latino 1080p gratis en mega.

The Field Guide to Evil (2018) 1080p Latino pelicula full hd, The Field Guide to Evil (2018) 1080p Latino mega latino, The Field Guide to Evil (2018) 1080p Latino 4k latino, The Field Guide to Evil (2018) 1080p Latino pelicula completa, The Field Guide to Evil (2018) 1080p Latino descargar gratis, descargar The Field Guide to Evil (2018) 1080p Latino pelicula latino, The Field Guide to Evil (2018) 1080p Latino 1 link mega, The Field Guide to Evil (2018) 1080p Latino 1 link google drive, The Field Guide to Evil (2018) 1080p Latino hd 1080p latino.
Comentarios 0