×

¿Problemas para descargar con Mozilla, EDGE? Deshabilita la opción "Abrir vinculos en una pestaña nueva" tal como lo muestra ésta imagen.

Un Loco Fin de Semana (2018) REMUX 1080p Latino

475 vistas

Información de Un Loco Fin de Semana (2018) REMUX 1080p Latino

Datos de la película

  • Calidad: Full 1080p
  • Audio: Español Latino AC3 5.1 iTUNES - Ingles DTS 5.1 BLURAY
  • Subtitulos: Español Latino SRT- FORZADOS SRT
  • Resolución: 1920x1080p
  • Formato: MKV
  • Codec: H.264
  • Encoder: CinefiloCool
  • Mediainfo: Clic para Mostrar Datos Ver
  • Un Loco Fin de Semana (2018) REMUX 1080p Latino-CMHDD.mkv
    Format                      : Matroska
    Format version              : Version 4
    File size                   : 20.1 GiB
    Duration                    : 1 h 37 min
    Overall bit rate mode       : Variable
    Overall bit rate            : 29.5 Mb/s
    Movie name                  : CinemaniaHDD.Net
    Encoded date                : UTC 2019-11-18 07:38:38
    Writing application         : mkvmerge v38.0.0 ('The Silent Type') 64-bit
    Writing library             : libebml v1.3.9 + libmatroska v1.5.2
    Attachments                 : CINEMANIAHD.png

    Video
    ID                          : 1
    Format                      : AVC
    Format/Info                 : Advanced Video Codec
    Format profile              : High@L4.1
    Format settings             : CABAC / 4 Ref Frames
    Format settings, CABAC      : Yes
    Format settings, ReFrames   : 4 frames
    Format settings, GOP        : M=3, N=24
    Codec ID                    : V_MPEG4/ISO/AVC
    Duration                    : 1 h 37 min
    Bit rate mode               : Variable
    Bit rate                    : 25.4 Mb/s
    Maximum bit rate            : 34.0 Mb/s
    Width                       : 1 920 pixels
    Height                      : 1 080 pixels
    Display aspect ratio        : 16:9
    Frame rate mode             : Constant
    Frame rate                  : 23.976 (24000/1001) FPS
    Standard                    : NTSC
    Color space                 : YUV
    Chroma subsampling          : 4:2:0
    Bit depth                   : 8 bits
    Scan type                   : Progressive
    Bits/(Pixel*Frame)          : 0.510
    Stream size                 : 17.3 GiB (86%)
    Title                       : Full HD1080p [REMUX]
    Default                     : Yes
    Forced                      : No
    Color range                 : Limited
    Color primaries             : BT.709
    Transfer characteristics    : BT.709
    Matrix coefficients         : BT.709

    Audio #1
    ID                          : 2
    Format                      : AC-3
    Format/Info                 : Audio Coding 3
    Commercial name             : Dolby Digital
    Codec ID                    : A_AC3
    Duration                    : 1 h 37 min
    Bit rate mode               : Constant
    Bit rate                    : 384 kb/s
    Channel(s)                  : 6 channels
    Channel layout              : L R C LFE Ls Rs
    Sampling rate               : 48.0 kHz
    Frame rate                  : 31.250 FPS (1536 SPF)
    Bit depth                   : 16 bits
    Compression mode            : Lossy
    Stream size                 : 269 MiB (1%)
    Title                       : AC3_5.1_Web_Esp
    Language                    : Spanish
    Service kind                : Complete Main
    Default                     : Yes
    Forced                      : Yes

    Audio #2
    ID                          : 3
    Format                      : DTS XLL
    Format/Info                 : Digital Theater Systems
    Commercial name             : DTS-HD Master Audio
    Codec ID                    : A_DTS
    Duration                    : 1 h 37 min
    Bit rate mode               : Variable
    Bit rate                    : 3 689 kb/s
    Channel(s)                  : 6 channels
    Channel layout              : C L R Ls Rs LFE
    Sampling rate               : 48.0 kHz
    Frame rate                  : 93.750 FPS (512 SPF)
    Bit depth                   : 24 bits
    Compression mode            : Lossless
    Stream size                 : 2.52 GiB (13%)
    Title                       : DTS-HD_5.1_Bluray_Eng
    Language                    : English
    Default                     : No
    Forced                      : No

    Text #1
    ID                          : 4
    Format                      : UTF-8
    Codec ID                    : S_TEXT/UTF8
    Codec ID/Info               : UTF-8 Plain Text
    Duration                    : 1 h 34 min
    Bit rate                    : 0 b/s
    Count of elements           : 4
    Stream size                 : 125 Bytes (0%)
    Title                       : Sub_Forzados
    Language                    : Spanish
    Default                     : Yes
    Forced                      : Yes

    Text #2
    ID                          : 5
    Format                      : UTF-8
    Codec ID                    : S_TEXT/UTF8
    Codec ID/Info               : UTF-8 Plain Text
    Duration                    : 1 h 34 min
    Bit rate                    : 81 b/s
    Count of elements           : 1626
    Stream size                 : 56.4 KiB (0%)
    Title                       : Sub_Esp
    Language                    : Spanish
    Default                     : No
    Forced                      : No

    Text #3
    ID                          : 6
    Format                      : PGS
    Muxing mode                 : zlib
    Codec ID                    : S_HDMV/PGS
    Codec ID/Info               : Picture based subtitle format used on BDs/HD-DVDs
    Duration                    : 1 h 37 min
    Bit rate                    : 54.5 kb/s
    Count of elements           : 4224
    Stream size                 : 38.1 MiB (0%)
    Title                       : Sub_Eng [PGS]
    Language                    : English
    Default                     : No
    Forced                      : No

    Menu
    00:00:00.000                : :Chapter 1
    00:10:09.275                : :Chapter 2
    00:19:11.150                : :Chapter 3
    00:30:41.798                : :Chapter 4
    00:40:45.944                : :Chapter 5
    00:54:47.367                : :Chapter 6
    01:07:06.064                : :Chapter 7
    01:17:32.606                : :Chapter 8
    01:34:16.943                : :Chapter 9

  • Peso: 20.1 GiB

Sinopsis

Descargar Un Loco Fin de Semana (2018) REMUX 1080p Latino. Nick acaba de ver cómo su novia le deja, pero su mejor amigo, Shane, tiene el antídoto perfecto para la ruptura: tres días en un festival de música.

Ficha técnica

Video trailer de la película

Enlaces de descarga

Rip de Bluray

Descargar Un Loco Fin de Semana (2018) REMUX 1080p Latino




Aportes de DPeliculasHDmega la pass es:dpeliculashdmega.org Aportes de CinemaniaHD la pass es:cinemaniahdd.com
Guardado en : Comedia , Música , Remux

Películas relacionadas

  • Mi amigo el dragón (2016) REMUX 1080p Latino

    Mi amigo el dragón (2016) REMUX 1080p Latino

    2016
    Mi amigo el dragón (2016) REMUX 1080p Latino

    1h 43m 2016

    Descargar Mi amigo el dragón (2016) REMUX 1080p Latino. Durante años el Sr. Meacham, un viejo tallador...

    Director: Joe Nolan

    Género: Aventura

    Actores: William J. Rawbone

  • El discurso del Rey (2010) REMUX 1080p Latino

    El discurso del Rey (2010) REMUX 1080p Latino

    2010
    El discurso del Rey (2010) REMUX 1080p Latino

    1h 58m 2010

    Descargar El discurso del Rey (2010) REMUX 1080p Latino. El duque de York se convirtió en rey de Gran...

    Director: Tom Hooper

    Género: Drama

    Actores: Tony Earnshaw

  • 8 Mile (2002) REMUX 4K HDR Latino – CMHDD

    8 Mile (2002) REMUX 4K HDR Latino – CMHDD

    2002
    8 Mile (2002) REMUX 4K HDR Latino – CMHDD

    1h 50m 2002

    Detroit, 1995. La promesa de potencia industrial se ha transformado en un hervidero de conflictos económicos...

    Director: Michael J. Moore

    Género: Drama

    Actores: Xzibit

descargar Un Loco Fin de Semana (2018) REMUX 1080p Latino Full 1080p 1080p gratis, Un Loco Fin de Semana (2018) REMUX 1080p Latino Full 1080p mega 1 link, Un Loco Fin de Semana (2018) REMUX 1080p Latino Full 1080p pelicula completa, descargar Un Loco Fin de Semana (2018) REMUX 1080p Latino Full 1080p gratis en mega.

Un Loco Fin de Semana (2018) REMUX 1080p Latino pelicula full hd, Un Loco Fin de Semana (2018) REMUX 1080p Latino mega latino, Un Loco Fin de Semana (2018) REMUX 1080p Latino 4k latino, Un Loco Fin de Semana (2018) REMUX 1080p Latino pelicula completa, Un Loco Fin de Semana (2018) REMUX 1080p Latino descargar gratis, descargar Un Loco Fin de Semana (2018) REMUX 1080p Latino pelicula latino, Un Loco Fin de Semana (2018) REMUX 1080p Latino 1 link mega, Un Loco Fin de Semana (2018) REMUX 1080p Latino 1 link google drive, Un Loco Fin de Semana (2018) REMUX 1080p Latino hd 1080p latino.
Comentarios 0