El Fanático (2019) PLACEBO Full HD 1080p Latino

39 vistas
1 estrella2 estrellas3 estrellas4 estrellas5 estrellas (Ninguna valoración todavía)
Cargando...

Información de El Fanático (2019) PLACEBO Full HD 1080p Latino

Datos de la película

  • Calidad: Full 1080p
  • Audio: Español Latino AC3 2.0 DVD - Ingles AC3 5.1 BLURAY
  • Subtitulos: Español Latino SRT- FORZADOS SRT
  • Resolución: 1920x1080p
  • Formato: MKV
  • Codec: H.264
  • Encoder: Melkor
  • Mediainfo: Clic para Mostrar Datos Ver
  • El Fanatico (2019) PLACEBO Full HD 1080p Latino.mkv
    Format                      : Matroska
    Format version              : Version 4
    File size                   : 2.59 GiB
    Duration                    : 1 h 28 min
    Overall bit rate            : 4 163 kb/s
    Movie name                  : The Fanatic (2019) CinemaniaHDD.Net
    Encoded date                : UTC 2020-08-12 01:05:53
    Writing application         : mkvmerge v46.0.0 ('No Deeper Escape') 64-bit
    Writing library             : libebml v1.3.10 + libmatroska v1.5.2
    Attachments                 : CINEMANIAHD.png

    Video
    ID                          : 1
    Format                      : AVC
    Format/Info                 : Advanced Video Codec
    Format profile              : High@L4.1
    Format settings             : CABAC / 4 Ref Frames
    Format settings, CABAC      : Yes
    Format settings, Reference  : 4 frames
    Codec ID                    : V_MPEG4/ISO/AVC
    Duration                    : 1 h 28 min
    Bit rate                    : 3 451 kb/s
    Width                       : 1 920 pixels
    Height                      : 1 080 pixels
    Display aspect ratio        : 16:9
    Frame rate mode             : Constant
    Frame rate                  : 23.976 (24000/1001) FPS
    Color space                 : YUV
    Chroma subsampling          : 4:2:0
    Bit depth                   : 8 bits
    Scan type                   : Progressive
    Bits/(Pixel*Frame)          : 0.069
    Stream size                 : 2.15 GiB (83%)
    Title                       : Full HD1080p [CinemaniaHDD]
    Writing library             : x264 core 157 r2935 545de2f
    Encoding settings           : cabac=1 / ref=4 / deblock=1:0:0 / analyse=0x3:0x133 / me=tesa / subme=11 / psy=1 / psy_rd=1.00:0.00 / mixed_ref=1 / me_range=24 / chroma_me=1 / trellis=2 / 8x8dct=1 / cqm=0 / deadzone=21,11 / fast_pskip=0 / chroma_qp_offset=-2 / threads=24 / lookahead_threads=6 / sliced_threads=0 / nr=0 / decimate=1 / interlaced=0 / bluray_compat=0 / constrained_intra=0 / bframes=16 / b_pyramid=2 / b_adapt=2 / b_bias=0 / direct=3 / weightb=1 / open_gop=0 / weightp=2 / keyint=240 / keyint_min=24 / scenecut=40 / intra_refresh=0 / rc_lookahead=60 / rc=crf / mbtree=1 / crf=20.0 / qcomp=0.60 / qpmin=0 / qpmax=69 / qpstep=4 / vbv_maxrate=62500 / vbv_bufsize=78125 / crf_max=0.0 / nal_hrd=none / filler=0 / ip_ratio=1.40 / aq=1:1.00
    Default                     : Yes
    Forced                      : Yes
    Color range                 : Limited
    Color primaries             : BT.709
    Transfer characteristics    : BT.709
    Matrix coefficients         : BT.709

    Audio #1
    ID                          : 2
    Format                      : AC-3
    Format/Info                 : Audio Coding 3
    Commercial name             : Dolby Digital
    Codec ID                    : A_AC3
    Duration                    : 1 h 28 min
    Bit rate mode               : Constant
    Bit rate                    : 256 kb/s
    Channel(s)                  : 2 channels
    Channel layout              : L R
    Sampling rate               : 48.0 kHz
    Frame rate                  : 31.250 FPS (1536 SPF)
    Compression mode            : Lossy
    Stream size                 : 163 MiB (6%)
    Title                       : Español Latino [CinemaniaHDD]
    Language                    : Spanish
    Service kind                : Complete Main
    Default                     : Yes
    Forced                      : Yes

    Audio #2
    ID                          : 3
    Format                      : AC-3
    Format/Info                 : Audio Coding 3
    Commercial name             : Dolby Digital
    Codec ID                    : A_AC3
    Duration                    : 1 h 28 min
    Bit rate mode               : Constant
    Bit rate                    : 448 kb/s
    Channel(s)                  : 6 channels
    Channel layout              : L R C LFE Ls Rs
    Sampling rate               : 48.0 kHz
    Frame rate                  : 31.250 FPS (1536 SPF)
    Compression mode            : Lossy
    Stream size                 : 285 MiB (11%)
    Title                       : Ingles [CinemaniaHDD]
    Language                    : English
    Service kind                : Complete Main
    Default                     : No
    Forced                      : No

    Text #1
    ID                          : 4
    Format                      : UTF-8
    Codec ID                    : S_TEXT/UTF8
    Codec ID/Info               : UTF-8 Plain Text
    Duration                    : 8 s 484 ms
    Bit rate                    : 65 b/s
    Count of elements           : 2
    Stream size                 : 69.0 Bytes (0%)
    Title                       : Forzados-SRT [CinemaniaHDD]
    Language                    : Spanish
    Default                     : Yes
    Forced                      : Yes

    Text #2
    ID                          : 5
    Format                      : UTF-8
    Codec ID                    : S_TEXT/UTF8
    Codec ID/Info               : UTF-8 Plain Text
    Duration                    : 1 h 21 min
    Bit rate                    : 60 b/s
    Count of elements           : 1050
    Stream size                 : 35.8 KiB (0%)
    Title                       : Español-SRT [CinemaniaHDD]
    Language                    : Spanish
    Default                     : No
    Forced                      : No

    Text #3
    ID                          : 6
    Format                      : PGS
    Muxing mode                 : zlib
    Codec ID                    : S_HDMV/PGS
    Codec ID/Info               : Picture based subtitle format used on BDs/HD-DVDs
    Duration                    : 1 h 21 min
    Bit rate                    : 28.5 kb/s
    Count of elements           : 2401
    Stream size                 : 16.6 MiB (1%)
    Title                       : Ingles-PGS [CinemaniaHDD]
    Language                    : English
    Default                     : No
    Forced                      : No

    Menu
    00:00:00.000                : en:Chapter 01
    00:05:54.646                : en:Chapter 02
    00:09:45.460                : en:Chapter 03
    00:15:58.082                : en:Chapter 04
    00:21:20.946                : en:Chapter 05
    00:31:00.192                : en:Chapter 06
    00:35:46.227                : en:Chapter 07
    00:40:57.664                : en:Chapter 08
    00:46:37.837                : en:Chapter 09
    00:52:18.177                : en:Chapter 10
    00:59:38.158                : en:Chapter 11
    01:06:06.588                : en:Chapter 12
    01:10:08.996                : en:Chapter 13
    01:12:23.047                : en:Chapter 14
    01:18:05.431                : en:Chapter 15
    01:19:12.289                : en:Chapter 16

  • Peso: 2.59 GiB

Sinopsis

Descargar El Fanático (2019) PLACEBO Full HD 1080p Latino. Moose es un fanático del cine de acción que vive obsesionado con su actor favorito, Hunter Dunbar. Gracias a un fotógrafo, Moose averigua la dirección de Hunter y lo que comienza como un ejercicio de admiración se torna una obcecación enfermiza y peligrosa.

Ficha técnica

Video trailer de la película

Enlaces de descarga

Rip de Bluray

Descargar El Fanático (2019) PLACEBO Full HD 1080p Latino




Aportes de DPeliculasHDmega la pass es:dpeliculashdmega.org Aportes de CinemaniaHD la pass es:cinemaniahdd.com

Películas relacionadas

  • Enola Holmes (2020) NF WEB-DL 1080p Latino

    Enola Holmes (2020) NF WEB-DL 1080p Latino

    2020
    Enola Holmes (2020) NF WEB-DL 1080p Latino

    5.0 2h 3m 2020

    Enola Holmes, una intrépida joven que busca a su madre, utiliza su brillante instinto investigador para...

    Director: Harry Bradbeer

    Género: Aventura

    Actores: Susan Wokoma

  • Hanna (2011) 1080p Latino

    Hanna (2011) 1080p Latino

    2011
    Hanna (2011) 1080p Latino

    0.0 1h 51m 2011

    Descargar Hanna (2011) 1080p Latino. Hanna tiene 16 años. Es brillante, curiosa y una devota hija. Excepcionalmente,...

    Director: Sheila Paige

    Género: Acción

    Actores: Vincent Montuel

  • Hanna (2011) Full HD 1080p Latino

    Hanna (2011) Full HD 1080p Latino

    2011
    Hanna (2011) Full HD 1080p Latino

    5.0 1h 51m 2011

    Descargar Hanna (2011) Full HD 1080p Latino. Hanna tiene 16 años. Es brillante, curiosa y una devota...

    Director: Sheila Paige

    Género: Acción

    Actores: Vincent Montuel

  • Hanna (2011) REMUX 1080p Latino

    Hanna (2011) REMUX 1080p Latino

    2011
    Hanna (2011) REMUX 1080p Latino

    5.0 1h 51m 2011

    Descargar Hanna (2011) REMUX 1080p Latino. Hanna tiene 16 años. Es brillante, curiosa y una devota hija....

    Director: Sheila Paige

    Género: Acción

    Actores: Vincent Montuel

  • Looper: Asesino Del Futuro (2012) 1080p Latino

    Looper: Asesino Del Futuro (2012) 1080p Latino

    2012
    Looper: Asesino Del Futuro (2012) 1080p Latino

    0.0 1h 58m 2012

    Descargar Looper: Asesino Del Futuro (2012) 1080p Latino. Como en 2072 los asesinatos están terminantemente...

    Director: Samuel W. Sullivan

    Género: Acción

    Actores: Xu Qing

Comentarios 0