×

¿Problemas para descargar con Mozilla, EDGE? Deshabilita la opción "Abrir vinculos en una pestaña nueva" tal como lo muestra ésta imagen.

Hombre de familia (2000) REMUX 1080p Latino

410 vistas

Información de Hombre de familia (2000) REMUX 1080p Latino

Datos de la película

  • Calidad: Full 1080p
  • Audio: Se especifica abajo de la Sinopsis
  • Subtitulos: Español Latino SRT - Ingles SRT
  • Resolución: 1920x1080p
  • Formato: MKV
  • Codec: H.264
  • Encoder: CinefiloCool
  • Mediainfo: Clic para Mostrar Datos Ver
  • Hombre De Familia (2000) REMUX 1080p Latino-CMHDD.mkv Format                      : Matroska Format version              : Version 4 File size                   : 29.9 GiB Duration                    : 2 h 6 min Overall bit rate mode       : Variable Overall bit rate            : 34.0 Mb/s Movie name                  : The Family Man (2000) CinemaniaHDD.Net Encoded date                : UTC 2023-01-29 07:49:51 Writing application         : mkvmerge v56.1.0 ('My Friend') 64-bit Writing library             : libebml v1.4.2 + libmatroska v1.6.4 Attachments                 : CINEMANIAHD.png Video ID                          : 1 Format                      : AVC Format/Info                 : Advanced Video Codec Format profile              : High@L4.1 Format settings             : CABAC / 4 Ref Frames Format settings, CABAC      : Yes Format settings, Reference  : 4 frames Codec ID                    : V_MPEG4/ISO/AVC Duration                    : 2 h 6 min Bit rate mode               : Variable Bit rate                    : 30.2 Mb/s Maximum bit rate            : 36.0 Mb/s Width                       : 1 920 pixels Height                      : 1 080 pixels Display aspect ratio        : 16:9 Frame rate mode             : Constant Frame rate                  : 23.976 (24000/1001) FPS Standard                    : NTSC Color space                 : YUV Chroma subsampling          : 4:2:0 Bit depth                   : 8 bits Scan type                   : Progressive Bits/(Pixel*Frame)          : 0.608 Stream size                 : 26.6 GiB (89%) Title                       : REMUX HD1080p [CinemaniaHDD] Default                     : Yes Forced                      : Yes Color range                 : Limited Color primaries             : BT.709 Transfer characteristics    : BT.709 Matrix coefficients         : BT.709 Audio #1 ID                          : 2 Format                      : AC-3 Format/Info                 : Audio Coding 3 Commercial name             : Dolby Digital Codec ID                    : A_AC3 Duration                    : 2 h 6 min Bit rate mode               : Constant Bit rate                    : 256 kb/s Channel(s)                  : 2 channels Channel layout              : L R Sampling rate               : 48.0 kHz Frame rate                  : 31.250 FPS (1536 SPF) Compression mode            : Lossy Stream size                 : 231 MiB (1%) Title                       : Español Latino Dub ORG NuVision [CinemaniaHDD] Language                    : Spanish Service kind                : Complete Main Default                     : No Forced                      : No Audio #2 ID                          : 3 Format                      : AC-3 Format/Info                 : Audio Coding 3 Commercial name             : Dolby Digital Codec ID                    : A_AC3 Duration                    : 2 h 6 min Bit rate mode               : Constant Bit rate                    : 256 kb/s Channel(s)                  : 2 channels Channel layout              : L R Sampling rate               : 48.0 kHz Frame rate                  : 31.250 FPS (1536 SPF) Compression mode            : Lossy Stream size                 : 231 MiB (1%) Title                       : Español Latino ReDub Uni [CinemaniaHDD] Language                    : Spanish Service kind                : Complete Main Default                     : Yes Forced                      : Yes Audio #3 ID                          : 4 Format                      : DTS XLL Format/Info                 : Digital Theater Systems Commercial name             : DTS-HD Master Audio Codec ID                    : A_DTS Duration                    : 2 h 6 min Bit rate mode               : Variable Bit rate                    : 3 220 kb/s Channel(s)                  : 6 channels Channel layout              : C L R Ls Rs LFE Sampling rate               : 48.0 kHz Frame rate                  : 93.750 FPS (512 SPF) Bit depth                   : 24 bits Compression mode            : Lossless Stream size                 : 2.84 GiB (9%) Title                       : Ingles [CinemaniaHDD] Language                    : English Default                     : No Forced                      : No Text #1 ID                          : 5 Format                      : UTF-8 Codec ID                    : S_TEXT/UTF8 Codec ID/Info               : UTF-8 Plain Text Duration                    : 1 h 51 min Bit rate                    : 0 b/s Count of elements           : 9 Stream size                 : 193 Bytes (0%) Title                       : Forzados-SRT [CinemaniaHDD] Language                    : Spanish Default                     : Yes Forced                      : Yes Text #2 ID                          : 6 Format                      : UTF-8 Codec ID                    : S_TEXT/UTF8 Codec ID/Info               : UTF-8 Plain Text Duration                    : 1 h 58 min Bit rate                    : 54 b/s Count of elements           : 1512 Stream size                 : 47.6 KiB (0%) Title                       : Español-SRT [CinemaniaHDD] Language                    : Spanish Default                     : No Forced                      : No Text #3 ID                          : 7 Format                      : UTF-8 Codec ID                    : S_TEXT/UTF8 Codec ID/Info               : UTF-8 Plain Text Duration                    : 2 h 0 min Bit rate                    : 62 b/s Count of elements           : 1460 Stream size                 : 55.3 KiB (0%) Title                       : Ingles-SRT [CinemaniaHDD] Language                    : English Default                     : No Forced                      : No Menu 00:00:00.000                : :Chapter 01 00:11:19.429                : :Chapter 02 00:23:14.184                : :Chapter 03 00:30:37.753                : :Chapter 04 00:43:42.995                : :Chapter 05 00:54:01.155                : :Chapter 06 01:05:14.035                : :Chapter 07 01:20:17.271                : :Chapter 08 01:30:24.502                : :Chapter 09 01:40:29.857                : :Chapter 10 01:49:46.997                : :Chapter 11 01:55:01.853                : :Chapter 12
  • Peso: 29.9 GiB

Sinopsis

Descargar Hombre de familia (2000) REMUX 1080p Latino. Jack Campbell es un egocéntrico broker de Wall Street cuya única obsesión es el trabajo y una vida llena de lujo. Tras un incidente en una tienda el día de Nochebuena, se despierta viviendo otra vida: es un humilde vendedor de neumáticos de Nueva Jersey, casado con su antigua novia Kate, a la que había abandonado hacía años para que no obstaculizara su carrera en el mundo de las finanzas.

Audio Español Latino Dub ORG AC3 2.0 Nu Vision – Redub AC3 2.0 Universal – Ingles DTS-HD 5.1 Bluray

Ficha técnica

Video trailer de la película

Enlaces de descarga

Rip de Bluray

Descargar Hombre de familia (2000) REMUX 1080p Latino


Aportes de DPeliculasHDmega la pass es:dpeliculashdmega.org Aportes de CinemaniaHD la pass es:cinemaniahdd.com Aportes recientes:cinemaniahdd.net
Guardado en : Comedia , Drama , Fantasía , Remux , Romance

Películas relacionadas

  • Amor, Mentiras y Sangre (2024) REMUX 1080p Latino

    Amor, Mentiras y Sangre (2024) REMUX 1080p Latino

    2024
    Amor, Mentiras y Sangre (2024) REMUX 1080p Latino

    1h 44m 2024

    Descargar Amor, Mentiras y Sangre (2024) REMUX 1080p Latino. Jackie está decidida a triunfar como culturista...

    Director: William Merritt Thomas

    Género: Crimen

    Actores: Tait Fletcher

  • Amor, Mentiras y Sangre (2024) HD 1080p Latino

    Amor, Mentiras y Sangre (2024) HD 1080p Latino

    2024
    Amor, Mentiras y Sangre (2024) HD 1080p Latino

    1h 44m 2024

    Descargar Amor, Mentiras y Sangre (2024) HD 1080p Latino. Jackie está decidida a triunfar como culturista...

    Director: William Merritt Thomas

    Género: Crimen

    Actores: Tait Fletcher

  • Seven Pounds (2008) REMUX 1080p Latino – CMHDD

    Seven Pounds (2008) REMUX 1080p Latino – CMHDD

    2008
    Seven Pounds (2008) REMUX 1080p Latino – CMHDD

    2h 3m 2008

    Ben Thomas es un inspector de Hacienda que comienza a contactar con determinadas personas con la aparente...

    Director: Paul Schneider

    Género: Drama

    Actores: Woody Harrelson

descargar Hombre de familia (2000) REMUX 1080p Latino Full 1080p 1080p gratis, Hombre de familia (2000) REMUX 1080p Latino Full 1080p mega 1 link, Hombre de familia (2000) REMUX 1080p Latino Full 1080p pelicula completa, descargar Hombre de familia (2000) REMUX 1080p Latino Full 1080p gratis en mega.

Hombre de familia (2000) REMUX 1080p Latino pelicula full hd, Hombre de familia (2000) REMUX 1080p Latino mega latino, Hombre de familia (2000) REMUX 1080p Latino 4k latino, Hombre de familia (2000) REMUX 1080p Latino pelicula completa, Hombre de familia (2000) REMUX 1080p Latino descargar gratis, descargar Hombre de familia (2000) REMUX 1080p Latino pelicula latino, Hombre de familia (2000) REMUX 1080p Latino 1 link mega, Hombre de familia (2000) REMUX 1080p Latino 1 link google drive, Hombre de familia (2000) REMUX 1080p Latino hd 1080p latino.
Comentarios 0