×

¿Problemas para descargar con Mozilla, EDGE? Deshabilita la opción "Abrir vinculos en una pestaña nueva" tal como lo muestra ésta imagen.

El Ojo Del Mal (2008) REMUX 1080p Latino

155 vistas

Información de El Ojo Del Mal (2008) REMUX 1080p Latino

Datos de la película

  • Calidad: Full 1080p
  • Audio: Se especifica abajo de la Sinopsis
  • Subtitulos: Español Latino PGS - Ingles PGS
  • Resolución: 1920x1080p
  • Formato: MKV
  • Codec: H.264
  • Encoder: CinefiloCool
  • Mediainfo: Clic para Mostrar Datos Ver
  • El Ojo Del Mal (2008) REMUX 1080p Latino-CMHDD.mkv
    Format                      : Matroska
    Format version              : Version 4
    File size                   : 15.5 GiB
    Duration                    : 1 h 36 min
    Overall bit rate mode       : Variable
    Overall bit rate            : 23.0 Mb/s
    Movie name                  : The Eye (2008) CinemaniaHDD.Net
    Encoded date                : UTC 2022-05-11 06:50:26
    Writing application         : mkvmerge v56.1.0 ('My Friend') 64-bit
    Writing library             : libebml v1.4.2 + libmatroska v1.6.4
    Attachments                 : CINEMANIAHD.png

    Video
    ID                          : 1
    Format                      : AVC
    Format/Info                 : Advanced Video Codec
    Format profile              : High@L4.1
    Format settings             : CABAC / 3 Ref Frames
    Format settings, CABAC      : Yes
    Format settings, Reference  : 3 frames
    Format settings, GOP        : M=3, N=24
    Codec ID                    : V_MPEG4/ISO/AVC
    Duration                    : 1 h 36 min
    Bit rate                    : 17.8 Mb/s
    Width                       : 1 920 pixels
    Height                      : 1 080 pixels
    Display aspect ratio        : 16:9
    Frame rate mode             : Constant
    Frame rate                  : 23.976 (24000/1001) FPS
    Color space                 : YUV
    Chroma subsampling          : 4:2:0
    Bit depth                   : 8 bits
    Scan type                   : Progressive
    Bits/(Pixel*Frame)          : 0.357
    Stream size                 : 12.0 GiB (77%)
    Title                       : REMUX HD1080p [CinemaniaHDD]
    Language                    : English
    Default                     : Yes
    Forced                      : Yes

    Audio #1
    ID                          : 2
    Format                      : AC-3
    Format/Info                 : Audio Coding 3
    Commercial name             : Dolby Digital
    Codec ID                    : A_AC3
    Duration                    : 1 h 36 min
    Bit rate mode               : Constant
    Bit rate                    : 448 kb/s
    Channel(s)                  : 6 channels
    Channel layout              : L R C LFE Ls Rs
    Sampling rate               : 48.0 kHz
    Frame rate                  : 31.250 FPS (1536 SPF)
    Compression mode            : Lossy
    Stream size                 : 309 MiB (2%)
    Title                       : Español Latino [CinemaniaHDD]
    Language                    : Spanish
    Service kind                : Complete Main
    Default                     : Yes
    Forced                      : Yes

    Audio #2
    ID                          : 3
    Format                      : DTS XLL
    Format/Info                 : Digital Theater Systems
    Commercial name             : DTS-HD Master Audio
    Codec ID                    : A_DTS
    Duration                    : 1 h 36 min
    Bit rate mode               : Variable
    Bit rate                    : 4 797 kb/s
    Channel(s)                  : 8 channels
    Channel layout              : C L R LFE Lb Rb Lss Rss
    Sampling rate               : 48.0 kHz
    Frame rate                  : 93.750 FPS (512 SPF)
    Bit depth                   : 24 bits
    Compression mode            : Lossless
    Delay relative to video     : 10 ms
    Stream size                 : 3.24 GiB (21%)
    Title                       : Ingles [CinemaniaHDD]
    Language                    : English
    Default                     : No
    Forced                      : No

    Text #1
    ID                          : 4
    Format                      : PGS
    Muxing mode                 : zlib
    Codec ID                    : S_HDMV/PGS
    Codec ID/Info               : Picture based subtitle format used on BDs/HD-DVDs
    Duration                    : 1 h 26 min
    Bit rate                    : 21.9 kb/s
    Count of elements           : 1658
    Stream size                 : 13.5 MiB (0%)
    Title                       : Español-PGS [CinemaniaHDD]
    Language                    : Spanish
    Default                     : No
    Forced                      : No

    Text #2
    ID                          : 5
    Format                      : PGS
    Muxing mode                 : zlib
    Codec ID                    : S_HDMV/PGS
    Codec ID/Info               : Picture based subtitle format used on BDs/HD-DVDs
    Duration                    : 1 h 28 min
    Bit rate                    : 24.4 kb/s
    Count of elements           : 1720
    Stream size                 : 15.4 MiB (0%)
    Title                       : Ingles-PGS [CinemaniaHDD]
    Language                    : English
    Default                     : No
    Forced                      : No

    Text #3
    ID                          : 6
    Format                      : UTF-8
    Codec ID                    : S_TEXT/UTF8
    Codec ID/Info               : UTF-8 Plain Text
    Duration                    : 1 h 29 min
    Bit rate                    : 0 b/s
    Count of elements           : 4
    Stream size                 : 73.0 Bytes (0%)
    Title                       : Forzados-SRT [CinemaniaHDD]
    Language                    : Spanish
    Default                     : Yes
    Forced                      : Yes

    Text #4
    ID                          : 7
    Format                      : UTF-8
    Codec ID                    : S_TEXT/UTF8
    Codec ID/Info               : UTF-8 Plain Text
    Duration                    : 1 h 33 min
    Bit rate                    : 35 b/s
    Count of elements           : 812
    Stream size                 : 24.1 KiB (0%)
    Title                       : Español-SRT [CinemaniaHDD]
    Language                    : Spanish
    Default                     : No
    Forced                      : No

    Menu
    00:00:00.000                : Chapter 1
    00:06:42.235                : Chapter 2
    00:11:44.287                : Chapter 3
    00:15:33.224                : Chapter 4
    00:19:35.508                : Chapter 5
    00:23:25.279                : Chapter 6
    00:29:02.032                : Chapter 7
    00:35:46.770                : Chapter 8
    00:40:07.071                : Chapter 9
    00:46:23.489                : Chapter 10
    00:51:10.609                : Chapter 11
    00:57:12.804                : Chapter 12
    01:04:15.560                : Chapter 13
    01:10:55.293                : Chapter 14
    01:16:50.564                : Chapter 15
    01:22:24.815                : Chapter 16
    01:27:31.246                : Chapter 17
    01:29:45.505                : Chapter 18

  • Peso: 15.5 GiB

Sinopsis

Sydney, una joven violinista ciega desde la infancia, recupera la vista gracias a una operación de córnea. A medida que comienza a adaptarse a esta nueva situación, extrañas imágenes que ella no sabe discernir si son realidad o causadas por la operación, se le irán apareciendo. Poco a poco entenderá que las imágenes que ve no son disfunciones visuales causadas por la operación, sino que son en realidad imágenes de fantasmas. Sydney deberá averiguar de quién son las córneas que le han trasplantado para entender las terroríficas imágenes que se le aparecen.

Audio Español Latino AC3 5.1 DVD – Ingles DTS-HD 7.1 Bluray
Disponible Solo Para VIP!!!

Ficha técnica

Video trailer de la película

Enlaces de descarga

Rip de Bluray

Descargar El Ojo Del Mal (2008) REMUX 1080p Latino


Aportes de DPeliculasHDmega la pass es:dpeliculashdmega.org Aportes de CinemaniaHD la pass es:cinemaniahdd.com
Guardado en : Drama , Remux , Suspenso , Terror

Películas relacionadas

  • Nightmare Alley (2021) REMUX 4K HDR Latino – CMHDD

    Nightmare Alley (2021) REMUX 4K HDR Latino – CMHDD

    2021
    Nightmare Alley (2021) REMUX 4K HDR Latino – CMHDD

    2h 30m 2021

    Un buscavidas se compincha con una pitonisa para engañar a la gente y conseguir dinero... Remake del...

    Director: Guillermo del Toro

    Género: Crimen

    Actores: Willem Dafoe

  • Beauty (2022) NF Web-DL 1080p Latino

    Beauty (2022) NF Web-DL 1080p Latino

    2022
    Beauty (2022) NF Web-DL 1080p Latino

    0h 0m 2022

    Descargar Beauty (2022) NF Web-DL 1080p Latino. Una joven y talentosa cantante negra, lucha por mantener...

    Director: Andrew Dosunmu

    Género: Drama

    Actores: Sharon Stone

  • Llamas de venganza (2022) HD 1080p Latino

    Llamas de venganza (2022) HD 1080p Latino

    2022
    Llamas de venganza (2022) HD 1080p Latino

    0h 0m 2022

    Descargar Llamas de venganza (2022) HD 1080p Latino. Andy y Vicky son unos padres que llevan más de...

    Director: Keith Thomas

    Género: Fantasía

    Actores: Zac Efron

  • Llamas de venganza (2022) REMUX 1080p Latino

    Llamas de venganza (2022) REMUX 1080p Latino

    2022
    Llamas de venganza (2022) REMUX 1080p Latino

    0h 0m 2022

    Descargar Llamas de venganza (2022) REMUX 1080p Latino. Andy y Vicky son unos padres que llevan más...

    Director: Keith Thomas

    Género: Fantasía

    Actores: Zac Efron

El Ojo Del Mal (2008) REMUX 1080p Latino pelicula full hd, El Ojo Del Mal (2008) REMUX 1080p Latino mega latino, El Ojo Del Mal (2008) REMUX 1080p Latino 4k latino, El Ojo Del Mal (2008) REMUX 1080p Latino pelicula completa, El Ojo Del Mal (2008) REMUX 1080p Latino descargar gratis, descargar El Ojo Del Mal (2008) REMUX 1080p Latino pelicula latino, El Ojo Del Mal (2008) REMUX 1080p Latino 1 link mega, El Ojo Del Mal (2008) REMUX 1080p Latino 1 link google drive, El Ojo Del Mal (2008) REMUX 1080p Latino hd 1080p latino.
Comentarios 0