×

¿Problemas para descargar con Mozilla, EDGE? Deshabilita la opción "Abrir vinculos en una pestaña nueva" tal como lo muestra ésta imagen.

The Expendables 3 (2014) [Open Matte] WEB-DL 1080p Latino

365 vistas

Información de The Expendables 3 (2014) [Open Matte] WEB-DL 1080p Latino

Datos de la película

  • Calidad: 1080p
  • Audio: Español Latino AC3 2.0 WEB-DL - Ingles AC3 2.0 WEB-DL
  • Subtitulos: Español Latino SRT- FORZADOS SRT
  • Resolución: 1920x1080
  • Formato: MKV
  • Codec: H.264
  • Encoder: cinemaniahdd
  • Mediainfo: Clic para Mostrar Datos Ver
  • The Expendables 3 (2014) [Open Matte] WEB-DL 1080p Latino [CNMNHDD].mkv
    Format                      : Matroska
    Format version              : Version 4
    File size                   : 8.47 GiB
    Duration                    : 2 h 6 min
    Overall bit rate            : 9 591 kb/s
    Movie name                  : Los Indestructibles 3 (2014) [1080p] Open Matte - CinemaniaHDD.Net
    Encoded date                : UTC 2022-08-08 00:20:37
    Writing application         : mkvmerge v56.1.0 ('My Friend') 64-bit
    Writing library             : libebml v1.4.2 + libmatroska v1.6.4

    Video
    ID                          : 1
    Format                      : AVC
    Format/Info                 : Advanced Video Codec
    Format profile              : High@L4
    Format settings             : CABAC / 4 Ref Frames
    Format settings, CABAC      : Yes
    Format settings, Reference  : 4 frames
    Codec ID                    : V_MPEG4/ISO/AVC
    Duration                    : 2 h 6 min
    Bit rate mode               : Constant
    Bit rate                    : 9 203 kb/s
    Nominal bit rate            : 10 000 kb/s
    Width                       : 1 920 pixels
    Height                      : 1 080 pixels
    Display aspect ratio        : 16:9
    Frame rate mode             : Constant
    Frame rate                  : 23.976 (24000/1001) FPS
    Color space                 : YUV
    Chroma subsampling          : 4:2:0
    Bit depth                   : 8 bits
    Scan type                   : Progressive
    Bits/(Pixel*Frame)          : 0.185
    Stream size                 : 8.13 GiB (96%)
    Title                       : CinemaniaHDD
    Default                     : Yes
    Forced                      : No
    Color range                 : Limited
    Color primaries             : BT.709
    Transfer characteristics    : BT.709
    Matrix coefficients         : BT.709

    Audio #1
    ID                          : 2
    Format                      : AAC LC
    Format/Info                 : Advanced Audio Codec Low Complexity
    Codec ID                    : A_AAC-2
    Duration                    : 2 h 6 min
    Bit rate                    : 128 kb/s
    Channel(s)                  : 2 channels
    Channel layout              : L R
    Sampling rate               : 48.0 kHz
    Frame rate                  : 46.875 FPS (1024 SPF)
    Compression mode            : Lossy
    Stream size                 : 116 MiB (1%)
    Title                       : Español latino [CinemaniaHDD]
    Language                    : Spanish
    Default                     : Yes
    Forced                      : No

    Audio #2
    ID                          : 3
    Format                      : AAC LC
    Format/Info                 : Advanced Audio Codec Low Complexity
    Codec ID                    : A_AAC-2
    Duration                    : 2 h 6 min
    Bit rate                    : 128 kb/s
    Channel(s)                  : 2 channels
    Channel layout              : L R
    Sampling rate               : 48.0 kHz
    Frame rate                  : 46.875 FPS (1024 SPF)
    Compression mode            : Lossy
    Stream size                 : 116 MiB (1%)
    Title                       : Inglés [CinemaniaHDD]
    Language                    : English
    Default                     : No
    Forced                      : No

    Audio #3
    ID                          : 4
    Format                      : AAC LC
    Format/Info                 : Advanced Audio Codec Low Complexity
    Codec ID                    : A_AAC-2
    Duration                    : 2 h 6 min
    Bit rate                    : 128 kb/s
    Channel(s)                  : 2 channels
    Channel layout              : L R
    Sampling rate               : 48.0 kHz
    Frame rate                  : 46.875 FPS (1024 SPF)
    Compression mode            : Lossy
    Stream size                 : 116 MiB (1%)
    Title                       : Portugués [CinemaniaHDD]
    Language                    : Portuguese
    Default                     : No
    Forced                      : No

    Text #1
    ID                          : 5
    Format                      : UTF-8
    Codec ID                    : S_TEXT/UTF8
    Codec ID/Info               : UTF-8 Plain Text
    Duration                    : 4 s 754 ms
    Bit rate                    : 35 b/s
    Count of elements           : 1
    Stream size                 : 21.0 Bytes (0%)
    Title                       : Forzados [CinemaniaHDD]
    Language                    : Spanish
    Default                     : Yes
    Forced                      : Yes

    Text #2
    ID                          : 6
    Format                      : UTF-8
    Codec ID                    : S_TEXT/UTF8
    Codec ID/Info               : UTF-8 Plain Text
    Duration                    : 1 h 54 min
    Bit rate                    : 44 b/s
    Count of elements           : 1320
    Stream size                 : 37.6 KiB (0%)
    Title                       : Español latino [CinemaniaHDD]
    Language                    : Spanish
    Default                     : No
    Forced                      : No

     

  • Peso: 8.47 GiB

Sinopsis

El grupo de los mercenarios, dirigidos por Barney, durante una misión en África, se encuentran frente a frente con Stonebanks, el otro miembro fundador del grupo, al que Barney creía muerto. Stonebanks es ahora un rico y despiadado traficante de armas que el gobierno de los EEUU quiere capturar con vida para llevarlo al tribunal internacional de la Haya.

Ficha técnica

Video trailer de la película

Enlaces de descarga

Rip de Bluray

Descargar The Expendables 3 (2014) [Open Matte] WEB-DL 1080p Latino




Aportes de DPeliculasHDmega la pass es:dpeliculashdmega.org Aportes de CinemaniaHD la pass es:cinemaniahdd.com
Guardado en : Acción , Aventura , OPEN MATTE , Suspenso

Películas relacionadas

descargar The Expendables 3 (2014) [Open Matte] WEB-DL 1080p Latino 1080p 1080p gratis, The Expendables 3 (2014) [Open Matte] WEB-DL 1080p Latino 1080p mega 1 link, The Expendables 3 (2014) [Open Matte] WEB-DL 1080p Latino 1080p pelicula completa, descargar The Expendables 3 (2014) [Open Matte] WEB-DL 1080p Latino 1080p gratis en mega.

The Expendables 3 (2014) [Open Matte] WEB-DL 1080p Latino pelicula full hd, The Expendables 3 (2014) [Open Matte] WEB-DL 1080p Latino mega latino, The Expendables 3 (2014) [Open Matte] WEB-DL 1080p Latino 4k latino, The Expendables 3 (2014) [Open Matte] WEB-DL 1080p Latino pelicula completa, The Expendables 3 (2014) [Open Matte] WEB-DL 1080p Latino descargar gratis, descargar The Expendables 3 (2014) [Open Matte] WEB-DL 1080p Latino pelicula latino, The Expendables 3 (2014) [Open Matte] WEB-DL 1080p Latino 1 link mega, The Expendables 3 (2014) [Open Matte] WEB-DL 1080p Latino 1 link google drive, The Expendables 3 (2014) [Open Matte] WEB-DL 1080p Latino hd 1080p latino.
Comentarios 0