×

¿Problemas para descargar con Mozilla, EDGE? Deshabilita la opción "Abrir vinculos en una pestaña nueva" tal como lo muestra ésta imagen.

Los indestructibles 3 (2014) EXTENDED Full HD 1080p Latino

200 vistas

Información de Los indestructibles 3 (2014) EXTENDED Full HD 1080p Latino

Datos de la película

  • Calidad: Full 1080p
  • Audio: Español Latino AC3 5.1 BLURAY - Ingles AC3 5.1 BLURAY
  • Subtitulos: Español Latino PGS - Ingles PGS
  • Resolución: 1920x1080p
  • Formato: MKV
  • Codec: H.264
  • Encoder: CinefiloCool
  • Mediainfo: Clic para Mostrar Datos Ver
  • The.Expendables.3.2014.EXTENDED.Bluray.FullHD.1080p.x264.Latino-CC@CMHDD.mkv
    Format                      : Matroska
    Format version              : Version 4
    File size                   : 4.99 GiB
    Duration                    : 2 h 11 min
    Overall bit rate            : 5 435 kb/s
    Movie name                  : The Expendables 3 (2014) CinemaniaHDD.Net
    Encoded date                : UTC 2023-11-19 08:32:45
    Writing application         : mkvmerge v56.1.0 ('My Friend') 64-bit
    Writing library             : libebml v1.4.2 + libmatroska v1.6.4
    Attachments                 : CINEMANIAHD.png

    Video
    ID                          : 1
    Format                      : AVC
    Format/Info                 : Advanced Video Codec
    Format profile              : High@L4.1
    Format settings             : CABAC / 4 Ref Frames
    Format settings, CABAC      : Yes
    Format settings, Reference  : 4 frames
    Codec ID                    : V_MPEG4/ISO/AVC
    Duration                    : 2 h 11 min
    Bit rate                    : 4 137 kb/s
    Width                       : 1 920 pixels
    Height                      : 1 080 pixels
    Display aspect ratio        : 16:9
    Frame rate mode             : Constant
    Frame rate                  : 23.976 (24000/1001) FPS
    Color space                 : YUV
    Chroma subsampling          : 4:2:0
    Bit depth                   : 8 bits
    Scan type                   : Progressive
    Bits/(Pixel*Frame)          : 0.083
    Stream size                 : 3.80 GiB (76%)
    Title                       : Full HD1080p [CinemaniaHDD]
    Writing library             : x264 core 163 r3059 b684ebe0
    Encoding settings           : cabac=1 / ref=4 / deblock=1:0:0 / analyse=0x3:0x133 / me=tesa / subme=11 / psy=1 / psy_rd=1.00:0.00 / mixed_ref=1 / me_range=24 / chroma_me=1 / trellis=2 / 8x8dct=1 / cqm=0 / deadzone=21,11 / fast_pskip=0 / chroma_qp_offset=-2 / threads=24 / lookahead_threads=6 / sliced_threads=0 / nr=0 / decimate=1 / interlaced=0 / bluray_compat=0 / constrained_intra=0 / bframes=16 / b_pyramid=2 / b_adapt=2 / b_bias=0 / direct=3 / weightb=1 / open_gop=0 / weightp=2 / keyint=240 / keyint_min=24 / scenecut=40 / intra_refresh=0 / rc_lookahead=60 / rc=crf / mbtree=1 / crf=20.0 / qcomp=0.60 / qpmin=0 / qpmax=69 / qpstep=4 / vbv_maxrate=62500 / vbv_bufsize=78125 / crf_max=0.0 / nal_hrd=none / filler=0 / ip_ratio=1.40 / aq=1:1.00
    Default                     : Yes
    Forced                      : Yes
    Color range                 : Limited
    Color primaries             : BT.709
    Transfer characteristics    : BT.709
    Matrix coefficients         : BT.709

    Audio #1
    ID                          : 2
    Format                      : AC-3
    Format/Info                 : Audio Coding 3
    Commercial name             : Dolby Digital
    Codec ID                    : A_AC3
    Duration                    : 2 h 11 min
    Bit rate mode               : Constant
    Bit rate                    : 640 kb/s
    Channel(s)                  : 6 channels
    Channel layout              : L R C LFE Ls Rs
    Sampling rate               : 48.0 kHz
    Frame rate                  : 31.250 FPS (1536 SPF)
    Compression mode            : Lossy
    Stream size                 : 602 MiB (12%)
    Title                       : Español Latino [CinemaniaHDD]
    Language                    : Spanish
    Service kind                : Complete Main
    Default                     : Yes
    Forced                      : Yes

    Audio #2
    ID                          : 3
    Format                      : AC-3
    Format/Info                 : Audio Coding 3
    Commercial name             : Dolby Digital
    Codec ID                    : A_AC3
    Duration                    : 2 h 11 min
    Bit rate mode               : Constant
    Bit rate                    : 640 kb/s
    Channel(s)                  : 6 channels
    Channel layout              : L R C LFE Ls Rs
    Sampling rate               : 48.0 kHz
    Frame rate                  : 31.250 FPS (1536 SPF)
    Compression mode            : Lossy
    Stream size                 : 602 MiB (12%)
    Title                       : Ingles [CinemaniaHDD]
    Language                    : English
    Service kind                : Complete Main
    Default                     : No
    Forced                      : No

    Text #1
    ID                          : 4
    Format                      : PGS
    Muxing mode                 : zlib
    Codec ID                    : S_HDMV/PGS
    Codec ID/Info               : Picture based subtitle format used on BDs/HD-DVDs
    Duration                    : 1 h 59 min
    Bit rate                    : 410 b/s
    Count of elements           : 38
    Stream size                 : 360 KiB (0%)
    Title                       : Forzados-PGS [CinemaniaHDD]
    Language                    : Spanish
    Default                     : No
    Forced                      : No

    Text #2
    ID                          : 5
    Format                      : PGS
    Muxing mode                 : zlib
    Codec ID                    : S_HDMV/PGS
    Codec ID/Info               : Picture based subtitle format used on BDs/HD-DVDs
    Duration                    : 1 h 59 min
    Bit rate                    : 27.2 kb/s
    Count of elements           : 2490
    Stream size                 : 23.3 MiB (0%)
    Title                       : Español-PGS [CinemaniaHDD]
    Language                    : Spanish
    Default                     : No
    Forced                      : No

    Text #3
    ID                          : 6
    Format                      : PGS
    Muxing mode                 : zlib
    Codec ID                    : S_HDMV/PGS
    Codec ID/Info               : Picture based subtitle format used on BDs/HD-DVDs
    Duration                    : 1 h 59 min
    Bit rate                    : 27.8 kb/s
    Count of elements           : 2476
    Stream size                 : 23.7 MiB (0%)
    Title                       : Ingles-PGS [CinemaniaHDD]
    Language                    : English
    Default                     : No
    Forced                      : No

    Text #4
    ID                          : 7
    Format                      : UTF-8
    Codec ID                    : S_TEXT/UTF8
    Codec ID/Info               : UTF-8 Plain Text
    Duration                    : 1 h 59 min
    Bit rate                    : 0 b/s
    Count of elements           : 19
    Stream size                 : 587 Bytes (0%)
    Title                       : Forzados-SRT [CinemaniaHDD]
    Language                    : Spanish
    Default                     : Yes
    Forced                      : Yes

    Text #5
    ID                          : 8
    Format                      : UTF-8
    Codec ID                    : S_TEXT/UTF8
    Codec ID/Info               : UTF-8 Plain Text
    Duration                    : 1 h 59 min
    Bit rate                    : 43 b/s
    Count of elements           : 1239
    Stream size                 : 38.1 KiB (0%)
    Title                       : Español-SRT [CinemaniaHDD]
    Language                    : Spanish
    Default                     : No
    Forced                      : No

    Menu
    00:00:00.000                : 00:00:00.000
    00:07:25.528                : 00:07:25.528
    00:13:00.029                : 00:13:00.029
    00:22:24.760                : 00:22:24.760
    00:30:12.102                : 00:30:12.102
    00:36:20.303                : 00:36:20.303
    00:42:31.424                : 00:42:31.424
    00:48:45.548                : 00:48:45.548
    00:55:37.709                : 00:55:37.709
    01:01:30.270                : 01:01:30.270
    01:12:07.573                : 01:12:07.573
    01:21:14.786                : 01:21:14.786
    01:30:10.655                : 01:30:10.655
    01:36:43.339                : 01:36:43.339
    01:47:47.628                : 01:47:47.628
    01:56:15.760                : 01:56:15.760

  • Peso: 4.99 GiB

Sinopsis

Descargar Los indestructibles 3 (2014) EXTENDED Full HD 1080p Latino. El grupo de los mercenarios, dirigidos por Barney, durante una misión en África, se encuentran frente a frente con Stonebanks, el otro miembro fundador del grupo, al que Barney creía muerto. Stonebanks es ahora un rico y despiadado traficante de armas que el gobierno de los EEUU quiere capturar con vida para llevarlo al tribunal internacional de la Haya.

Ficha técnica

Video trailer de la película

Enlaces de descarga

Rip de Bluray

Descargar Los indestructibles 3 (2014) EXTENDED Full HD 1080p Latino




Aportes de DPeliculasHDmega la pass es:dpeliculashdmega.org Aportes de CinemaniaHD la pass es:cinemaniahdd.com Aportes recientes:cinemaniahdd.net

Películas relacionadas

descargar Los indestructibles 3 (2014) EXTENDED Full HD 1080p Latino Full 1080p 1080p gratis, Los indestructibles 3 (2014) EXTENDED Full HD 1080p Latino Full 1080p mega 1 link, Los indestructibles 3 (2014) EXTENDED Full HD 1080p Latino Full 1080p pelicula completa, descargar Los indestructibles 3 (2014) EXTENDED Full HD 1080p Latino Full 1080p gratis en mega.

Los indestructibles 3 (2014) EXTENDED Full HD 1080p Latino pelicula full hd, Los indestructibles 3 (2014) EXTENDED Full HD 1080p Latino mega latino, Los indestructibles 3 (2014) EXTENDED Full HD 1080p Latino 4k latino, Los indestructibles 3 (2014) EXTENDED Full HD 1080p Latino pelicula completa, Los indestructibles 3 (2014) EXTENDED Full HD 1080p Latino descargar gratis, descargar Los indestructibles 3 (2014) EXTENDED Full HD 1080p Latino pelicula latino, Los indestructibles 3 (2014) EXTENDED Full HD 1080p Latino 1 link mega, Los indestructibles 3 (2014) EXTENDED Full HD 1080p Latino 1 link google drive, Los indestructibles 3 (2014) EXTENDED Full HD 1080p Latino hd 1080p latino.
Comentarios 0