×

¿Problemas para descargar con Mozilla, EDGE? Deshabilita la opción "Abrir vinculos en una pestaña nueva" tal como lo muestra ésta imagen.

Los indestructibles (2010) Full HD 1080p Latino

152 vistas

Información de Los indestructibles (2010) Full HD 1080p Latino

Datos de la película

  • Calidad: Full 1080p
  • Audio: Se especifica abajo de la Sinopsis
  • Subtitulos: Español Latino PGS - Ingles PGS
  • Resolución: 1920x1080p
  • Formato: MKV
  • Codec: H.264
  • Encoder: CinefiloCool
  • Mediainfo: Clic para Mostrar Datos Ver
  • The.Expendables.2010.Bluray.FullHD.1080p.x264.Multi.Latino-CC@CMHDD.mkv
    Format                      : Matroska
    Format version              : Version 4
    File size                   : 6.24 GiB
    Duration                    : 1 h 43 min
    Overall bit rate            : 8 629 kb/s
    Movie name                  : The Expendables (2010) CinemaniaHDD.Net
    Encoded date                : UTC 2023-11-19 07:39:47
    Writing application         : mkvmerge v56.1.0 ('My Friend') 64-bit
    Writing library             : libebml v1.4.2 + libmatroska v1.6.4
    Attachments                 : CINEMANIAHD.png

    Video
    ID                          : 1
    Format                      : AVC
    Format/Info                 : Advanced Video Codec
    Format profile              : High@L4.1
    Format settings             : CABAC / 4 Ref Frames
    Format settings, CABAC      : Yes
    Format settings, Reference  : 4 frames
    Codec ID                    : V_MPEG4/ISO/AVC
    Duration                    : 1 h 43 min
    Bit rate                    : 6 207 kb/s
    Width                       : 1 920 pixels
    Height                      : 1 080 pixels
    Display aspect ratio        : 16:9
    Frame rate mode             : Constant
    Frame rate                  : 23.976 (24000/1001) FPS
    Color space                 : YUV
    Chroma subsampling          : 4:2:0
    Bit depth                   : 8 bits
    Scan type                   : Progressive
    Bits/(Pixel*Frame)          : 0.125
    Stream size                 : 4.49 GiB (72%)
    Title                       : Full HD1080p [CinemaniaHDD]
    Writing library             : x264 core 163 r3059 b684ebe0
    Encoding settings           : cabac=1 / ref=4 / deblock=1:-1:-1 / analyse=0x3:0x133 / me=tesa / subme=11 / psy=1 / psy_rd=1.00:0.15 / mixed_ref=1 / me_range=24 / chroma_me=1 / trellis=2 / 8x8dct=1 / cqm=0 / deadzone=21,11 / fast_pskip=0 / chroma_qp_offset=-3 / threads=24 / lookahead_threads=6 / sliced_threads=0 / nr=0 / decimate=1 / interlaced=0 / bluray_compat=0 / constrained_intra=0 / bframes=16 / b_pyramid=2 / b_adapt=2 / b_bias=0 / direct=3 / weightb=1 / open_gop=0 / weightp=2 / keyint=240 / keyint_min=24 / scenecut=40 / intra_refresh=0 / rc_lookahead=60 / rc=crf / mbtree=1 / crf=20.0 / qcomp=0.60 / qpmin=0 / qpmax=69 / qpstep=4 / vbv_maxrate=62500 / vbv_bufsize=78125 / crf_max=0.0 / nal_hrd=none / filler=0 / ip_ratio=1.40 / aq=1:1.00
    Default                     : Yes
    Forced                      : Yes
    Color range                 : Limited
    Color primaries             : BT.709
    Transfer characteristics    : BT.709
    Matrix coefficients         : BT.709

    Audio #1
    ID                          : 2
    Format                      : AC-3
    Format/Info                 : Audio Coding 3
    Commercial name             : Dolby Digital
    Codec ID                    : A_AC3
    Duration                    : 1 h 43 min
    Bit rate mode               : Constant
    Bit rate                    : 640 kb/s
    Channel(s)                  : 6 channels
    Channel layout              : L R C LFE Ls Rs
    Sampling rate               : 48.0 kHz
    Frame rate                  : 31.250 FPS (1536 SPF)
    Compression mode            : Lossy
    Stream size                 : 474 MiB (7%)
    Title                       : Español Latino ORG ZIMA [CinemaniaHDD]
    Language                    : Spanish
    Service kind                : Complete Main
    Default                     : Yes
    Forced                      : Yes

    Audio #2
    ID                          : 3
    Format                      : AC-3
    Format/Info                 : Audio Coding 3
    Commercial name             : Dolby Digital
    Codec ID                    : A_AC3
    Duration                    : 1 h 43 min
    Bit rate mode               : Constant
    Bit rate                    : 256 kb/s
    Channel(s)                  : 2 channels
    Channel layout              : L R
    Sampling rate               : 48.0 kHz
    Frame rate                  : 31.250 FPS (1536 SPF)
    Compression mode            : Lossy
    Stream size                 : 189 MiB (3%)
    Title                       : Español Latino ReDub Lionsgate [CinemaniaHDD]
    Language                    : Spanish
    Service kind                : Complete Main
    Default                     : No
    Forced                      : No

    Audio #3
    ID                          : 4
    Format                      : DTS
    Format/Info                 : Digital Theater Systems
    Codec ID                    : A_DTS
    Duration                    : 1 h 43 min
    Bit rate mode               : Constant
    Bit rate                    : 1 509 kb/s
    Channel(s)                  : 6 channels
    Channel layout              : C L R Ls Rs LFE
    Sampling rate               : 48.0 kHz
    Frame rate                  : 93.750 FPS (512 SPF)
    Bit depth                   : 24 bits
    Compression mode            : Lossy
    Stream size                 : 1.09 GiB (17%)
    Title                       : Ingles [CinemaniaHDD]
    Language                    : English
    Default                     : No
    Forced                      : No

    Text #1
    ID                          : 5
    Format                      : PGS
    Muxing mode                 : zlib
    Codec ID                    : S_HDMV/PGS
    Codec ID/Info               : Picture based subtitle format used on BDs/HD-DVDs
    Duration                    : 1 h 35 min
    Bit rate                    : 24.1 kb/s
    Count of elements           : 1788
    Stream size                 : 16.4 MiB (0%)
    Title                       : Español-PGS [CinemaniaHDD]
    Language                    : Spanish
    Default                     : No
    Forced                      : No

    Text #2
    ID                          : 6
    Format                      : PGS
    Muxing mode                 : zlib
    Codec ID                    : S_HDMV/PGS
    Codec ID/Info               : Picture based subtitle format used on BDs/HD-DVDs
    Duration                    : 1 h 35 min
    Bit rate                    : 25.2 kb/s
    Count of elements           : 1746
    Stream size                 : 17.1 MiB (0%)
    Title                       : Ingles [CinemaniaHDD]
    Language                    : English
    Default                     : No
    Forced                      : No

    Text #3
    ID                          : 7
    Format                      : UTF-8
    Codec ID                    : S_TEXT/UTF8
    Codec ID/Info               : UTF-8 Plain Text
    Duration                    : 1 h 7 min
    Bit rate                    : 0 b/s
    Count of elements           : 6
    Stream size                 : 93.0 Bytes (0%)
    Title                       : Forzados-SRT [CinemaniaHDD]
    Language                    : Spanish
    Default                     : Yes
    Forced                      : Yes

    Text #4
    ID                          : 8
    Format                      : UTF-8
    Codec ID                    : S_TEXT/UTF8
    Codec ID/Info               : UTF-8 Plain Text
    Duration                    : 1 h 33 min
    Bit rate                    : 43 b/s
    Count of elements           : 901
    Stream size                 : 29.5 KiB (0%)
    Title                       : Español-SRT [CinemaniaHDD]
    Language                    : Spanish
    Default                     : No
    Forced                      : No

    Menu
    00:00:00.000                : Chapter 01
    00:08:50.822                : Chapter 02
    00:17:32.176                : Chapter 03
    00:22:47.741                : Chapter 04
    00:30:35.167                : Chapter 05
    00:33:34.846                : Chapter 06
    00:38:17.128                : Chapter 07
    00:47:51.785                : Chapter 08
    00:50:15.179                : Chapter 09
    00:55:09.222                : Chapter 10
    01:00:15.737                : Chapter 11
    01:06:31.529                : Chapter 12
    01:13:36.537                : Chapter 13
    01:20:17.229                : Chapter 14
    01:26:01.323                : Chapter 15
    01:31:17.180                : Chapter 16
    01:43:27.993                : Chapter 17

  • Peso: 6.24 GiB

Sinopsis

Descargar Los indestructibles (2010) Full HD 1080p Latino. Un grupo de mercenarios es contratado para infiltrarse en un país sudamericano y derrocar a su despiadado y corrupto dictador. Una vez allí, se verán atrapados en una telaraña de engaño y traición. Una vez fracasada la misión, tendrán que enfrentarse a un reto aún más difícil; salvar la unidad del grupo y la amistad que los ha unido durante largos años.

Audio Español Latino AC3 5.1 Dub ORG Zima + AC3 2.0 Redub Lionsgate – Ingles DTS 5.1 Bluray

Ficha técnica

Video trailer de la película

Enlaces de descarga

Rip de Bluray

Descargar Los indestructibles (2010) Full HD 1080p Latino




Aportes de DPeliculasHDmega la pass es:dpeliculashdmega.org Aportes de CinemaniaHD la pass es:cinemaniahdd.com Aportes recientes:cinemaniahdd.net

Películas relacionadas

descargar Los indestructibles (2010) Full HD 1080p Latino Full 1080p 1080p gratis, Los indestructibles (2010) Full HD 1080p Latino Full 1080p mega 1 link, Los indestructibles (2010) Full HD 1080p Latino Full 1080p pelicula completa, descargar Los indestructibles (2010) Full HD 1080p Latino Full 1080p gratis en mega.

Los indestructibles (2010) Full HD 1080p Latino pelicula full hd, Los indestructibles (2010) Full HD 1080p Latino mega latino, Los indestructibles (2010) Full HD 1080p Latino 4k latino, Los indestructibles (2010) Full HD 1080p Latino pelicula completa, Los indestructibles (2010) Full HD 1080p Latino descargar gratis, descargar Los indestructibles (2010) Full HD 1080p Latino pelicula latino, Los indestructibles (2010) Full HD 1080p Latino 1 link mega, Los indestructibles (2010) Full HD 1080p Latino 1 link google drive, Los indestructibles (2010) Full HD 1080p Latino hd 1080p latino.
Comentarios 0