×

¿Problemas para descargar con Mozilla, EDGE? Deshabilita la opción "Abrir vinculos en una pestaña nueva" tal como lo muestra ésta imagen.

Los indestructibles 2 (2012) REMUX 1080p Latino

133 vistas

Información de Los indestructibles 2 (2012) REMUX 1080p Latino

Datos de la película

  • Calidad: Full 1080p
  • Audio: Se especifica abajo de la Sinopsis
  • Subtitulos: Español Latino PGS - Ingles PGS
  • Resolución: 1920x1080p
  • Formato: MKV
  • Codec: H.264
  • Encoder: CinefiloCool
  • Mediainfo: Clic para Mostrar Datos Ver
  • The.Expendables.2.2012.Bluray.REMUX.1080p.AVC.Multi.Latino-CC@CMHDD.mkv
    Format                      : Matroska
    Format version              : Version 4
    File size                   : 24.1 GiB
    Duration                    : 1 h 42 min
    Overall bit rate mode       : Variable
    Overall bit rate            : 33.6 Mb/s
    Movie name                  : The Expendables 2 (2012) CinemaniaHDD.Net
    Encoded date                : UTC 2023-11-19 08:16:04
    Writing application         : mkvmerge v56.1.0 ('My Friend') 64-bit
    Writing library             : libebml v1.4.2 + libmatroska v1.6.4
    Attachments                 : CINEMANIAHD.png

    Video
    ID                          : 1
    Format                      : AVC
    Format/Info                 : Advanced Video Codec
    Format profile              : High@L4.1
    Format settings             : CABAC / 4 Ref Frames
    Format settings, CABAC      : Yes
    Format settings, Reference  : 4 frames
    Codec ID                    : V_MPEG4/ISO/AVC
    Duration                    : 1 h 42 min
    Bit rate mode               : Variable
    Bit rate                    : 26.9 Mb/s
    Maximum bit rate            : 37.0 Mb/s
    Width                       : 1 920 pixels
    Height                      : 1 080 pixels
    Display aspect ratio        : 16:9
    Frame rate mode             : Constant
    Frame rate                  : 23.976 (24000/1001) FPS
    Color space                 : YUV
    Chroma subsampling          : 4:2:0
    Bit depth                   : 8 bits
    Scan type                   : Progressive
    Bits/(Pixel*Frame)          : 0.541
    Stream size                 : 19.3 GiB (80%)
    Title                       : REMUX HD1080p [CinemaniaHDD]
    Default                     : Yes
    Forced                      : Yes

    Audio #1
    ID                          : 2
    Format                      : AC-3
    Format/Info                 : Audio Coding 3
    Commercial name             : Dolby Digital
    Codec ID                    : A_AC3
    Duration                    : 1 h 42 min
    Bit rate mode               : Constant
    Bit rate                    : 256 kb/s
    Channel(s)                  : 2 channels
    Channel layout              : L R
    Sampling rate               : 48.0 kHz
    Frame rate                  : 31.250 FPS (1536 SPF)
    Compression mode            : Lossy
    Stream size                 : 188 MiB (1%)
    Title                       : Español Latino ORG Zima [CinemaniaHDD]
    Language                    : Spanish
    Service kind                : Complete Main
    Default                     : No
    Forced                      : No

    Audio #2
    ID                          : 3
    Format                      : AC-3
    Format/Info                 : Audio Coding 3
    Commercial name             : Dolby Digital
    Codec ID                    : A_AC3
    Duration                    : 1 h 42 min
    Bit rate mode               : Constant
    Bit rate                    : 640 kb/s
    Channel(s)                  : 6 channels
    Channel layout              : L R C LFE Ls Rs
    Sampling rate               : 48.0 kHz
    Frame rate                  : 31.250 FPS (1536 SPF)
    Compression mode            : Lossy
    Stream size                 : 470 MiB (2%)
    Title                       : Español Latino ReDub Lionsgate [CinemaniaHDD]
    Language                    : Spanish
    Service kind                : Complete Main
    Default                     : Yes
    Forced                      : Yes

    Audio #3
    ID                          : 4
    Format                      : AC-3
    Format/Info                 : Audio Coding 3
    Commercial name             : Dolby Digital
    Codec ID                    : A_AC3
    Duration                    : 1 h 42 min
    Bit rate mode               : Constant
    Bit rate                    : 256 kb/s
    Channel(s)                  : 2 channels
    Channel layout              : L R
    Sampling rate               : 48.0 kHz
    Frame rate                  : 31.250 FPS (1536 SPF)
    Compression mode            : Lossy
    Stream size                 : 188 MiB (1%)
    Title                       : Español Latino ReDub ARG [CinemaniaHDD]
    Language                    : Spanish
    Service kind                : Complete Main
    Default                     : No
    Forced                      : No

    Audio #4
    ID                          : 5
    Format                      : DTS XLL
    Format/Info                 : Digital Theater Systems
    Commercial name             : DTS-HD Master Audio
    Codec ID                    : A_DTS
    Duration                    : 1 h 42 min
    Bit rate mode               : Variable
    Bit rate                    : 5 515 kb/s
    Channel(s)                  : 8 channels
    Channel layout              : C L R LFE Lb Rb Lss Rss
    Sampling rate               : 48.0 kHz
    Frame rate                  : 93.750 FPS (512 SPF)
    Bit depth                   : 24 bits
    Compression mode            : Lossless
    Stream size                 : 3.96 GiB (16%)
    Title                       : Ingles [CinemaniaHDD]
    Language                    : English
    Default                     : No
    Forced                      : No

    Text #1
    ID                          : 6
    Format                      : PGS
    Muxing mode                 : zlib
    Codec ID                    : S_HDMV/PGS
    Codec ID/Info               : Picture based subtitle format used on BDs/HD-DVDs
    Duration                    : 1 h 32 min
    Bit rate                    : 24.7 kb/s
    Count of elements           : 2062
    Stream size                 : 16.3 MiB (0%)
    Title                       : Español-PGS [CinemaniaHDD]
    Language                    : Spanish
    Default                     : No
    Forced                      : No

    Text #2
    ID                          : 7
    Format                      : PGS
    Muxing mode                 : zlib
    Codec ID                    : S_HDMV/PGS
    Codec ID/Info               : Picture based subtitle format used on BDs/HD-DVDs
    Duration                    : 1 h 29 min
    Bit rate                    : 28.0 kb/s
    Count of elements           : 1974
    Stream size                 : 18.0 MiB (0%)
    Title                       : Ingles [CinemaniaHDD]
    Language                    : English
    Default                     : No
    Forced                      : No

    Text #3
    ID                          : 8
    Format                      : UTF-8
    Codec ID                    : S_TEXT/UTF8
    Codec ID/Info               : UTF-8 Plain Text
    Duration                    : 1 h 30 min
    Bit rate                    : 0 b/s
    Count of elements           : 9
    Stream size                 : 171 Bytes (0%)
    Title                       : Forzados-SRT [CinemaniaHDD]
    Language                    : Spanish
    Default                     : Yes
    Forced                      : Yes

    Text #4
    ID                          : 9
    Format                      : UTF-8
    Codec ID                    : S_TEXT/UTF8
    Codec ID/Info               : UTF-8 Plain Text
    Duration                    : 1 h 32 min
    Bit rate                    : 41 b/s
    Count of elements           : 1024
    Stream size                 : 28.0 KiB (0%)
    Title                       : Español-SRT [CinemaniaHDD]
    Language                    : Spanish
    Default                     : No
    Forced                      : No

    Menu
    00:00:00.000                : Chapter 01
    00:10:04.229                : Chapter 02
    00:18:06.210                : Chapter 03
    00:24:55.661                : Chapter 04
    00:28:44.014                : Chapter 05
    00:31:32.641                : Chapter 06
    00:39:11.683                : Chapter 07
    00:48:54.390                : Chapter 08
    00:54:35.397                : Chapter 09
    00:59:25.103                : Chapter 10
    01:04:30.909                : Chapter 11
    01:07:15.239                : Chapter 12
    01:13:43.252                : Chapter 13
    01:20:18.522                : Chapter 14
    01:28:27.844                : Chapter 15
    01:31:25.271                : Chapter 16
    01:42:41.739                : Chapter 17

  • Peso: 24.1 GiB

Sinopsis

Descargar Los indestructibles 2 (2012) REMUX 1080p Latino. Barney Ross, Lee Christmas, Yin Yang, Gunner Jensen, Toll Road, Hale Caesar y Billy, un nuevo colega, se vuelven a reunir cuando el señor Church les encarga un trabajo aparentemente sencillo y muy lucrativo. Sin embargo, el plan se tuerce cuando un peligroso terrorista llamado Villain les tiende una emboscada. Entonces su único deseo será vengarse. Así es como van sembrando a su paso la destrucción y el caos entre sus enemigos hasta que se encuentran con una amenaza inesperada: cinco toneladas de plutonio apto para uso militar, una cantidad más que suficiente para cambiar el equilibrio de poder en el mundo.

Audio Español Latino AC3 2.0 Dub ORG Zima + AC3 5.1 Redub Lionsgate + AC3 2.0 Redub Arg – Ingles DTS-HD 7.1 Bluray

Ficha técnica

Video trailer de la película

Enlaces de descarga

Rip de Bluray

Descargar Los indestructibles 2 (2012) REMUX 1080p Latino


Aportes de DPeliculasHDmega la pass es:dpeliculashdmega.org Aportes de CinemaniaHD la pass es:cinemaniahdd.com Aportes recientes:cinemaniahdd.net
Guardado en : Acción , Aventura , Remux , Suspenso

Películas relacionadas

  • Viviendo con mi ex (2006) REMUX 1080p Latino-CMHDD

    Viviendo con mi ex (2006) REMUX 1080p Latino-CMHDD

    2006
    Viviendo con mi ex (2006) REMUX 1080p Latino-CMHDD

    1h 46m 2006

    Descargar Viviendo con mi ex (2006) REMUX 1080p Latino-CMHDD. Relato sobre las consecuencias de una ruptura...

    Director: Todd Amateau

    Género: Comedia

    Actores: William Dick

  • The Lego Movie (2014) REMUX 4K HDR Latino – CMHDD

    The Lego Movie (2014) REMUX 4K HDR Latino – CMHDD

    2014
    The Lego Movie (2014) REMUX 4K HDR Latino – CMHDD

    1h 40m 2014

    Película basada en los clásicos juguetes LEGO. Emmet, el protagonista de la película, trabaja como...

    Director: Vernessa Cook

    Género: Animación

    Actores: Will Forte

  • The Lego Movie (2014) REMUX 1080p Latino – CMHDD

    The Lego Movie (2014) REMUX 1080p Latino – CMHDD

    2014
    The Lego Movie (2014) REMUX 1080p Latino – CMHDD

    1h 40m 2014

    Película basada en los clásicos juguetes LEGO. Emmet, el protagonista de la película, trabaja como...

    Director: Vernessa Cook

    Género: Animación

    Actores: Will Forte

descargar Los indestructibles 2 (2012) REMUX 1080p Latino Full 1080p 1080p gratis, Los indestructibles 2 (2012) REMUX 1080p Latino Full 1080p mega 1 link, Los indestructibles 2 (2012) REMUX 1080p Latino Full 1080p pelicula completa, descargar Los indestructibles 2 (2012) REMUX 1080p Latino Full 1080p gratis en mega.

Los indestructibles 2 (2012) REMUX 1080p Latino pelicula full hd, Los indestructibles 2 (2012) REMUX 1080p Latino mega latino, Los indestructibles 2 (2012) REMUX 1080p Latino 4k latino, Los indestructibles 2 (2012) REMUX 1080p Latino pelicula completa, Los indestructibles 2 (2012) REMUX 1080p Latino descargar gratis, descargar Los indestructibles 2 (2012) REMUX 1080p Latino pelicula latino, Los indestructibles 2 (2012) REMUX 1080p Latino 1 link mega, Los indestructibles 2 (2012) REMUX 1080p Latino 1 link google drive, Los indestructibles 2 (2012) REMUX 1080p Latino hd 1080p latino.
Comentarios 0