×

¿Problemas para descargar con Mozilla, EDGE? Deshabilita la opción "Abrir vinculos en una pestaña nueva" tal como lo muestra ésta imagen.

The Expendables 2 (2012) [Open Matte] WEB-DL 1080p Latino

315 vistas

Información de The Expendables 2 (2012) [Open Matte] WEB-DL 1080p Latino

Datos de la película

  • Calidad: 1080p
  • Audio: Español Latino AC3 5.1 WEB-DL - Ingles AC3 5.1 WEB-DL
  • Subtitulos: Español Latino SRT- FORZADOS SRT
  • Resolución: 1920x1080
  • Formato: MKV
  • Codec: H.264
  • Encoder: cinemaniahdd
  • Mediainfo: Clic para Mostrar Datos Ver
  • The Expendables 2 (2012) [Open Matte] WEB-DL 1080p Latino [CNMNHDD].mkv
    Format                      : Matroska
    Format version              : Version 4
    File size                   : 10.1 GiB
    Duration                    : 1 h 42 min
    Overall bit rate            : 14.1 Mb/s
    Movie name                  : Los Indestructibles 2 (2012) [1080p] Open Matte - CinemaniaHDD.Net
    Encoded date                : UTC 2022-08-07 21:02:44
    Writing application         : mkvmerge v56.1.0 ('My Friend') 64-bit
    Writing library             : libebml v1.4.2 + libmatroska v1.6.4

    Video
    ID                          : 1
    Format                      : AVC
    Format/Info                 : Advanced Video Codec
    Format profile              : High@L4
    Format settings             : CABAC / 4 Ref Frames
    Format settings, CABAC      : Yes
    Format settings, Reference  : 4 frames
    Codec ID                    : V_MPEG4/ISO/AVC
    Duration                    : 1 h 42 min
    Bit rate                    : 12.4 Mb/s
    Width                       : 1 920 pixels
    Height                      : 1 080 pixels
    Display aspect ratio        : 16:9
    Frame rate mode             : Constant
    Frame rate                  : 23.976 (24000/1001) FPS
    Color space                 : YUV
    Chroma subsampling          : 4:2:0
    Bit depth                   : 8 bits
    Scan type                   : Progressive
    Bits/(Pixel*Frame)          : 0.250
    Stream size                 : 8.87 GiB (88%)
    Title                       : CinemaniaHDD
    Default                     : Yes
    Forced                      : No
    Color range                 : Limited
    Color primaries             : BT.709
    Transfer characteristics    : BT.709
    Matrix coefficients         : BT.709

    Audio #1
    ID                          : 2
    Format                      : AC-3
    Format/Info                 : Audio Coding 3
    Commercial name             : Dolby Digital
    Codec ID                    : A_AC3
    Duration                    : 1 h 42 min
    Bit rate mode               : Constant
    Bit rate                    : 384 kb/s
    Channel(s)                  : 2 channels
    Channel layout              : L R
    Sampling rate               : 48.0 kHz
    Frame rate                  : 31.250 FPS (1536 SPF)
    Compression mode            : Lossy
    Stream size                 : 281 MiB (3%)
    Title                       : Español latino (Dub-ZIMA) [CinemaniaHDD]
    Language                    : Spanish
    Service kind                : Complete Main
    Default                     : Yes
    Forced                      : No

    Audio #2
    ID                          : 3
    Format                      : AC-3
    Format/Info                 : Audio Coding 3
    Commercial name             : Dolby Digital
    Codec ID                    : A_AC3
    Duration                    : 1 h 42 min
    Bit rate mode               : Constant
    Bit rate                    : 640 kb/s
    Channel(s)                  : 6 channels
    Channel layout              : L R C LFE Ls Rs
    Sampling rate               : 48.0 kHz
    Frame rate                  : 31.250 FPS (1536 SPF)
    Compression mode            : Lossy
    Stream size                 : 468 MiB (5%)
    Title                       : Español latino (Dub-LIONSGATE) [CinemaniaHDD]
    Language                    : Spanish
    Service kind                : Complete Main
    Default                     : No
    Forced                      : No

    Audio #3
    ID                          : 4
    Format                      : AC-3
    Format/Info                 : Audio Coding 3
    Commercial name             : Dolby Digital
    Codec ID                    : A_AC3
    Duration                    : 1 h 42 min
    Bit rate mode               : Constant
    Bit rate                    : 640 kb/s
    Channel(s)                  : 6 channels
    Channel layout              : L R C LFE Ls Rs
    Sampling rate               : 48.0 kHz
    Frame rate                  : 31.250 FPS (1536 SPF)
    Compression mode            : Lossy
    Stream size                 : 468 MiB (5%)
    Title                       : Inglés [CinemaniaHDD]
    Language                    : English
    Service kind                : Complete Main
    Default                     : No
    Forced                      : No

    Text #1
    ID                          : 5
    Format                      : UTF-8
    Codec ID                    : S_TEXT/UTF8
    Codec ID/Info               : UTF-8 Plain Text
    Duration                    : 1 h 30 min
    Bit rate                    : 0 b/s
    Count of elements           : 13
    Stream size                 : 197 Bytes (0%)
    Title                       : Forzados [CinemaniaHDD]
    Language                    : Spanish
    Default                     : Yes
    Forced                      : Yes

    Text #2
    ID                          : 6
    Format                      : UTF-8
    Codec ID                    : S_TEXT/UTF8
    Codec ID/Info               : UTF-8 Plain Text
    Duration                    : 1 h 32 min
    Bit rate                    : 36 b/s
    Count of elements           : 926
    Stream size                 : 24.9 KiB (0%)
    Title                       : Español latino (Dub-ZIMA) [CinemaniaHDD]
    Language                    : Spanish
    Default                     : No
    Forced                      : No

    Text #3
    ID                          : 7
    Format                      : UTF-8
    Codec ID                    : S_TEXT/UTF8
    Codec ID/Info               : UTF-8 Plain Text
    Duration                    : 1 h 32 min
    Bit rate                    : 42 b/s
    Count of elements           : 988
    Stream size                 : 28.4 KiB (0%)
    Title                       : Español latino (Dub-LIONSGATE) [CinemaniaHDD]
    Language                    : Spanish
    Default                     : No
    Forced                      : No

     

  • Peso: 10.1 GiB

Sinopsis

Barney Ross, Lee Christmas, Yin Yang, Gunner Jensen, Toll Road, Hale Caesar y Billy, un nuevo colega, se vuelven a reunir cuando el señor Church les encarga un trabajo aparentemente sencillo y muy lucrativo. Sin embargo, el plan se tuerce cuando un peligroso terrorista llamado Villain les tiende una emboscada. Entonces su único deseo será vengarse. Así es como van sembrando a su paso la destrucción y el caos entre sus enemigos hasta que se encuentran con una amenaza inesperada: cinco toneladas de plutonio apto para uso militar, una cantidad más que suficiente para cambiar el equilibrio de poder en el mundo.

Ficha técnica

Video trailer de la película

Enlaces de descarga

Rip de Bluray

Descargar The Expendables 2 (2012) [Open Matte] WEB-DL 1080p Latino




Aportes de DPeliculasHDmega la pass es:dpeliculashdmega.org Aportes de CinemaniaHD la pass es:cinemaniahdd.com
Guardado en : Acción , Aventura , OPEN MATTE , Suspenso

Películas relacionadas

descargar The Expendables 2 (2012) [Open Matte] WEB-DL 1080p Latino 1080p 1080p gratis, The Expendables 2 (2012) [Open Matte] WEB-DL 1080p Latino 1080p mega 1 link, The Expendables 2 (2012) [Open Matte] WEB-DL 1080p Latino 1080p pelicula completa, descargar The Expendables 2 (2012) [Open Matte] WEB-DL 1080p Latino 1080p gratis en mega.

The Expendables 2 (2012) [Open Matte] WEB-DL 1080p Latino pelicula full hd, The Expendables 2 (2012) [Open Matte] WEB-DL 1080p Latino mega latino, The Expendables 2 (2012) [Open Matte] WEB-DL 1080p Latino 4k latino, The Expendables 2 (2012) [Open Matte] WEB-DL 1080p Latino pelicula completa, The Expendables 2 (2012) [Open Matte] WEB-DL 1080p Latino descargar gratis, descargar The Expendables 2 (2012) [Open Matte] WEB-DL 1080p Latino pelicula latino, The Expendables 2 (2012) [Open Matte] WEB-DL 1080p Latino 1 link mega, The Expendables 2 (2012) [Open Matte] WEB-DL 1080p Latino 1 link google drive, The Expendables 2 (2012) [Open Matte] WEB-DL 1080p Latino hd 1080p latino.
Comentarios 0