×

¿Problemas para descargar con Mozilla, EDGE? Deshabilita la opción "Abrir vinculos en una pestaña nueva" tal como lo muestra ésta imagen.

The Expanse (2022) Temporada 6 AMZN WEB-DL 1080p Latino

820 vistas

Información de The Expanse (2022) Temporada 6 AMZN WEB-DL 1080p Latino

Datos de la película

  • Calidad: 1080p
  • Audio: Español Latino AC3 5.1 WEB-DL - Ingles AC3 5.1 WEB-DL
  • Subtitulos: Español Latino SRT- FORZADOS SRT
  • Resolución: 1920x1080
  • Formato: MKV
  • Codec: H.264
  • Encoder: cinemaniahdd
  • Mediainfo: Clic para Mostrar Datos Ver
  • The Expanse T06E01 AMZN WEB-DL 1080p Latino [CNMNHDD].mkv
    Format                      : Matroska
    Format version              : Version 4
    File size                   : 3.08 GiB
    Duration                    : 47 min 6 s
    Overall bit rate            : 9 356 kb/s
    Movie name                  : The Expanse T06E01 - CinemaniaHDD.Net
    Encoded date                : UTC 2021-12-10 02:20:00
    Writing application         : mkvmerge v56.1.0 ('My Friend') 64-bit
    Writing library             : libebml v1.4.2 + libmatroska v1.6.4

    Video
    ID                          : 1
    Format                      : AVC
    Format/Info                 : Advanced Video Codec
    Format profile              : High@L4
    Format settings             : CABAC / 4 Ref Frames
    Format settings, CABAC      : Yes
    Format settings, Reference  : 4 frames
    Codec ID                    : V_MPEG4/ISO/AVC
    Duration                    : 47 min 6 s
    Bit rate mode               : Constant
    Bit rate                    : 7 434 kb/s
    Nominal bit rate            : 10 000 kb/s
    Width                       : 1 920 pixels
    Height                      : 1 080 pixels
    Display aspect ratio        : 16:9
    Frame rate mode             : Constant
    Frame rate                  : 23.976 (24000/1001) FPS
    Color space                 : YUV
    Chroma subsampling          : 4:2:0
    Bit depth                   : 8 bits
    Scan type                   : Progressive
    Bits/(Pixel*Frame)          : 0.150
    Stream size                 : 2.45 GiB (79%)
    Title                       : CinemaniaHDD
    Default                     : Yes
    Forced                      : No
    Color range                 : Limited
    Color primaries             : BT.709
    Transfer characteristics    : BT.709
    Matrix coefficients         : BT.709

    Audio #1
    ID                          : 2
    Format                      : AC-3
    Format/Info                 : Audio Coding 3
    Commercial name             : Dolby Digital
    Codec ID                    : A_AC3
    Duration                    : 47 min 6 s
    Bit rate mode               : Constant
    Bit rate                    : 640 kb/s
    Channel(s)                  : 6 channels
    Channel layout              : L R C LFE Ls Rs
    Sampling rate               : 48.0 kHz
    Frame rate                  : 31.250 FPS (1536 SPF)
    Compression mode            : Lossy
    Stream size                 : 216 MiB (7%)
    Title                       : Español latino [CinemaniaHDD]
    Language                    : Spanish
    Service kind                : Complete Main
    Default                     : Yes
    Forced                      : No

    Audio #2
    ID                          : 3
    Format                      : E-AC-3
    Format/Info                 : Enhanced AC-3
    Commercial name             : Dolby Digital Plus
    Codec ID                    : A_EAC3
    Duration                    : 47 min 6 s
    Bit rate mode               : Constant
    Bit rate                    : 640 kb/s
    Channel(s)                  : 6 channels
    Channel layout              : L R C LFE Ls Rs
    Sampling rate               : 48.0 kHz
    Frame rate                  : 31.250 FPS (1536 SPF)
    Compression mode            : Lossy
    Stream size                 : 216 MiB (7%)
    Title                       : Español latino / E-AC3 [CinemaniaHDD]
    Language                    : Spanish
    Service kind                : Complete Main
    Default                     : No
    Forced                      : No

    Audio #3
    ID                          : 4
    Format                      : E-AC-3
    Format/Info                 : Enhanced AC-3
    Commercial name             : Dolby Digital Plus
    Codec ID                    : A_EAC3
    Duration                    : 47 min 6 s
    Bit rate mode               : Constant
    Bit rate                    : 640 kb/s
    Channel(s)                  : 6 channels
    Channel layout              : L R C LFE Ls Rs
    Sampling rate               : 48.0 kHz
    Frame rate                  : 31.250 FPS (1536 SPF)
    Compression mode            : Lossy
    Stream size                 : 216 MiB (7%)
    Title                       : Inglés [CinemaniaHDD]
    Language                    : English
    Service kind                : Complete Main
    Default                     : No
    Forced                      : No

    Text #1
    ID                          : 5
    Format                      : UTF-8
    Codec ID                    : S_TEXT/UTF8
    Codec ID/Info               : UTF-8 Plain Text
    Duration                    : 37 min 40 s
    Bit rate                    : 2 b/s
    Count of elements           : 24
    Stream size                 : 778 Bytes (0%)
    Title                       : Forzados [CinemaniaHDD]
    Language                    : Spanish
    Default                     : Yes
    Forced                      : Yes

    Text #2
    ID                          : 6
    Format                      : UTF-8
    Codec ID                    : S_TEXT/UTF8
    Codec ID/Info               : UTF-8 Plain Text
    Duration                    : 45 min 28 s
    Bit rate                    : 54 b/s
    Count of elements           : 502
    Stream size                 : 18.2 KiB (0%)
    Title                       : Español latino [CinemaniaHDD]
    Language                    : Spanish
    Default                     : No
    Forced                      : No

    Text #3
    ID                          : 7
    Format                      : UTF-8
    Codec ID                    : S_TEXT/UTF8
    Codec ID/Info               : UTF-8 Plain Text
    Duration                    : 43 min 9 s
    Bit rate                    : 60 b/s
    Count of elements           : 649
    Stream size                 : 19.1 KiB (0%)
    Title                       : Inglés [CinemaniaHDD]
    Language                    : English
    Default                     : No
    Forced                      : No

    Menu
    00:00:00.000                : Amazon Original
    00:00:05.000                : Previously On
    00:01:37.000                : Scene 3
    00:04:41.000                : Opening Credits
    00:05:50.000                : Scene 5
    00:09:27.000                : Scene 6
    00:14:14.000                : Scene 7
    00:15:17.000                : Scene 8
    00:19:13.000                : Scene 9
    00:22:16.000                : Scene 10
    00:26:16.000                : Scene 11
    00:28:03.000                : Scene 12
    00:30:40.000                : Scene 13
    00:32:50.000                : Scene 14
    00:34:27.000                : Scene 15
    00:37:43.000                : Scene 16
    00:39:08.000                : Scene 17
    00:41:03.000                : Scene 18
    00:43:36.000                : End Credits

     

  • Peso: 3.08 GiB C/U --- 6 CAPITULOS AGREGADOS

Sinopsis

Holden y la tripulación de la Rocinante luchan junto a la Flota Conjunta de la Tierra y Marte para proteger los planetas interiores de los letales y destructivos ataques de Marco Inaros y su Armada Libre. Entretanto, en un planeta lejano más allá de los anillos, se alza una nueva potencia.
6 CAPITULOS AGREGADOS

Ficha técnica

Video trailer de la película

Enlaces de descarga

Rip de Bluray

Descargar The Expanse (2022) Temporada 6 AMZN WEB-DL 1080p Latino




Aportes de DPeliculasHDmega la pass es:dpeliculashdmega.org Aportes de CinemaniaHD la pass es:cinemaniahdd.com
Guardado en : Drama , Misterio , Sci-Fi & Fantasy , Series

Películas relacionadas

descargar The Expanse (2022) Temporada 6 AMZN WEB-DL 1080p Latino 1080p 1080p gratis, The Expanse (2022) Temporada 6 AMZN WEB-DL 1080p Latino 1080p mega 1 link, The Expanse (2022) Temporada 6 AMZN WEB-DL 1080p Latino 1080p serie completa, descargar The Expanse (2022) Temporada 6 AMZN WEB-DL 1080p Latino 1080p gratis en mega.

The Expanse (2022) Temporada 6 AMZN WEB-DL 1080p Latino pelicula full hd, The Expanse (2022) Temporada 6 AMZN WEB-DL 1080p Latino mega latino, The Expanse (2022) Temporada 6 AMZN WEB-DL 1080p Latino 4k latino, The Expanse (2022) Temporada 6 AMZN WEB-DL 1080p Latino pelicula completa, The Expanse (2022) Temporada 6 AMZN WEB-DL 1080p Latino descargar gratis, descargar The Expanse (2022) Temporada 6 AMZN WEB-DL 1080p Latino pelicula latino, The Expanse (2022) Temporada 6 AMZN WEB-DL 1080p Latino 1 link mega, The Expanse (2022) Temporada 6 AMZN WEB-DL 1080p Latino 1 link google drive, The Expanse (2022) Temporada 6 AMZN WEB-DL 1080p Latino hd 1080p latino.
Comentarios 5
  • MArtin - 04 enero, 2022

    buenas noches , me baje todas las temporadas de esta serie para verla de corrido vi la primer temporada sin problema ahora la segunda los episodios estan rotos se pone la pantalla en verde agradecere si la pueden volver a subir, muchas gracias

    • CinemaniaHDD - 13 enero, 2022

      Hola, me baje el episodio T02E01 en mi pc y todo va perfecto.

      • juan perez - 13 enero, 2022

        dijo segunda temporada falla no el promero de la primera… sabeeeeee!!!!!!