×

¿Problemas para descargar con Mozilla, EDGE? Deshabilita la opción "Abrir vinculos en una pestaña nueva" tal como lo muestra ésta imagen.

The Expanse (2020 – 2021) Temporada 5 AMZN WEB-DL 1080p Latino

523 vistas

Información de The Expanse (2020 – 2021) Temporada 5 AMZN WEB-DL 1080p Latino

Datos de la película

  • Calidad: WEBDL
  • Audio: Español Latino E-AC3 5.1 AMAZON - Ingles E-AC3 5.1 AMAZON
  • Subtitulos: Español Latino SRT- FORZADOS SRT
  • Resolución: 1920x1080
  • Formato: MKV
  • Codec: H.264
  • Encoder: cinemaniahdd
  • Mediainfo: Clic para Mostrar Datos Ver
  • The Expanse T05E01 AMZN WEB-DL 1080p Latino [CNMNHDD].mkv
    Format                      : Matroska
    Format version              : Version 4
    File size                   : 2.97 GiB
    Duration                    : 51 min 40 s
    Overall bit rate            : 8 236 kb/s
    Movie name                  : The Expanse T05E01 - CinemaniaHDD.Net
    Encoded date                : UTC 2021-01-06 21:34:17
    Writing application         : mkvmerge v51.0.0 ('I Wish') 64-bit
    Writing library             : libebml v1.4.0 + libmatroska v1.6.2

    Video
    ID                          : 1
    Format                      : AVC
    Format/Info                 : Advanced Video Codec
    Format profile              : High@L4
    Format settings             : CABAC / 4 Ref Frames
    Format settings, CABAC      : Yes
    Format settings, Reference  : 4 frames
    Codec ID                    : V_MPEG4/ISO/AVC
    Duration                    : 51 min 40 s
    Bit rate mode               : Constant
    Bit rate                    : 6 953 kb/s
    Nominal bit rate            : 10 000 kb/s
    Width                       : 1 920 pixels
    Height                      : 1 080 pixels
    Display aspect ratio        : 16:9
    Frame rate mode             : Constant
    Frame rate                  : 23.976 (24000/1001) FPS
    Color space                 : YUV
    Chroma subsampling          : 4:2:0
    Bit depth                   : 8 bits
    Scan type                   : Progressive
    Bits/(Pixel*Frame)          : 0.140
    Stream size                 : 2.51 GiB (84%)
    Title                       : CinemaniaHDD
    Default                     : Yes
    Forced                      : No
    Color range                 : Limited
    Color primaries             : BT.709
    Transfer characteristics    : BT.709
    Matrix coefficients         : BT.709

    Audio #1
    ID                          : 2
    Format                      : E-AC-3
    Format/Info                 : Enhanced AC-3
    Commercial name             : Dolby Digital Plus
    Codec ID                    : A_EAC3
    Duration                    : 51 min 40 s
    Bit rate mode               : Constant
    Bit rate                    : 640 kb/s
    Channel(s)                  : 6 channels
    Channel layout              : L R C LFE Ls Rs
    Sampling rate               : 48.0 kHz
    Frame rate                  : 31.250 FPS (1536 SPF)
    Compression mode            : Lossy
    Stream size                 : 237 MiB (8%)
    Title                       : Español latino [CinemaniaHDD]
    Language                    : Spanish
    Service kind                : Complete Main
    Default                     : Yes
    Forced                      : No

    Audio #2
    ID                          : 3
    Format                      : E-AC-3
    Format/Info                 : Enhanced AC-3
    Commercial name             : Dolby Digital Plus
    Codec ID                    : A_EAC3
    Duration                    : 51 min 40 s
    Bit rate mode               : Constant
    Bit rate                    : 640 kb/s
    Channel(s)                  : 6 channels
    Channel layout              : L R C LFE Ls Rs
    Sampling rate               : 48.0 kHz
    Frame rate                  : 31.250 FPS (1536 SPF)
    Compression mode            : Lossy
    Stream size                 : 237 MiB (8%)
    Title                       : Inglés [CinemaniaHDD]
    Language                    : English
    Service kind                : Complete Main
    Default                     : No
    Forced                      : No

    Text #1
    ID                          : 4
    Format                      : UTF-8
    Codec ID                    : S_TEXT/UTF8
    Codec ID/Info               : UTF-8 Plain Text
    Duration                    : 49 min 14 s
    Bit rate                    : 2 b/s
    Count of elements           : 24
    Stream size                 : 791 Bytes (0%)
    Title                       : Forzados [CinemaniaHDD]
    Language                    : Spanish
    Default                     : Yes
    Forced                      : Yes

    Text #2
    ID                          : 5
    Format                      : UTF-8
    Codec ID                    : S_TEXT/UTF8
    Codec ID/Info               : UTF-8 Plain Text
    Duration                    : 51 min 25 s
    Bit rate                    : 61 b/s
    Count of elements           : 649
    Stream size                 : 23.1 KiB (0%)
    Title                       : Español latino [CinemaniaHDD]
    Language                    : Spanish
    Default                     : No
    Forced                      : No

    Text #3
    ID                          : 6
    Format                      : UTF-8
    Codec ID                    : S_TEXT/UTF8
    Codec ID/Info               : UTF-8 Plain Text
    Duration                    : 49 min 15 s
    Bit rate                    : 72 b/s
    Count of elements           : 888
    Stream size                 : 26.3 KiB (0%)
    Title                       : Inglés [CC] [CinemaniaHDD]
    Language                    : English
    Default                     : No
    Forced                      : No

    Menu
    00:00:00.000                : en:Amazon Original
    00:00:05.000                : en:Previously On
    00:01:36.000                : en:Bonafide space oddity
    00:07:22.000                : en:Opening Credits
    00:08:30.000                : en:The good guy discount
    00:12:46.000                : en:The evening news
    00:14:16.000                : en:En route to Luna
    00:18:47.000                : en:Getting the waiting out of the way
    00:19:54.000                : en:Monica's new story
    00:23:09.000                : en:Heading home
    00:24:10.000                : en:Chasing down leads
    00:26:12.000                : en:Holden confronts Fred Johnson
    00:31:13.000                : en:Alex tries to apologize
    00:36:42.000                : en:Naomi gets packed
    00:39:28.000                : en:Chrisjen says hello to Amos
    00:45:20.000                : en:The team divided
    00:47:58.000                : en:When our day comes
    00:49:30.000                : en:End Credits

     

  • Peso: 2.97 GiB Aprox ---- 31.1 GiB in 10 Chapters.

Sinopsis

En diferentes partes del Sistema Solar, la tripulación del Rocinante y sus aliados se enrentan a sus pecados del pasado, mientras Marco Inaros lidera un ataque que alterará el futuro de la Tierra Marte, el Cinturón y los mundos más allá del Anillo.

FINAL DE TEMPORADA

Ficha técnica

Video trailer de la película

Enlaces de descarga

Rip de Bluray

Descargar The Expanse (2020 – 2021) Temporada 5 AMZN WEB-DL 1080p Latino




Aportes de DPeliculasHDmega la pass es:dpeliculashdmega.org Aportes de CinemaniaHD la pass es:cinemaniahdd.com
Guardado en : Drama , Misterio , Sci-Fi & Fantasy , Series

Películas relacionadas

descargar The Expanse (2020 – 2021) Temporada 5 AMZN WEB-DL 1080p Latino WEBDL 1080p gratis, The Expanse (2020 – 2021) Temporada 5 AMZN WEB-DL 1080p Latino WEBDL mega 1 link, The Expanse (2020 – 2021) Temporada 5 AMZN WEB-DL 1080p Latino WEBDL serie completa, descargar The Expanse (2020 – 2021) Temporada 5 AMZN WEB-DL 1080p Latino WEBDL gratis en mega.

The Expanse (2020 – 2021) Temporada 5 AMZN WEB-DL 1080p Latino pelicula full hd, The Expanse (2020 – 2021) Temporada 5 AMZN WEB-DL 1080p Latino mega latino, The Expanse (2020 – 2021) Temporada 5 AMZN WEB-DL 1080p Latino 4k latino, The Expanse (2020 – 2021) Temporada 5 AMZN WEB-DL 1080p Latino pelicula completa, The Expanse (2020 – 2021) Temporada 5 AMZN WEB-DL 1080p Latino descargar gratis, descargar The Expanse (2020 – 2021) Temporada 5 AMZN WEB-DL 1080p Latino pelicula latino, The Expanse (2020 – 2021) Temporada 5 AMZN WEB-DL 1080p Latino 1 link mega, The Expanse (2020 – 2021) Temporada 5 AMZN WEB-DL 1080p Latino 1 link google drive, The Expanse (2020 – 2021) Temporada 5 AMZN WEB-DL 1080p Latino hd 1080p latino.
Comentarios 0