The Expanse (2015 – 2019) Temporada [01/04] AMZN WEB-DL 1080p Latino

28 vistas
1 estrella2 estrellas3 estrellas4 estrellas5 estrellas (1 votos, promedio: 5,00 de 5)
Cargando...

Información de The Expanse (2015 – 2019) Temporada [01/04] AMZN WEB-DL 1080p Latino

Datos de la película

  • Calidad: WEBDL
  • Audio: Español Latino E-AC3 5.1 AMAZON - Ingles E-AC3 5.1 AMAZON
  • Subtitulos: Español Latino SRT- FORZADOS SRT
  • Resolución: 1920x1080
  • Formato: MKV
  • Codec: H.264
  • Encoder: cinemaniahdd
  • Mediainfo: Clic para Mostrar Datos Ver
  • The Expanse T01E01 AMZN WEB-DL 1080p Latino [CNMNHDD].mkv
    Format                      : Matroska
    Format version              : Version 4
    File size                   : 3.18 GiB
    Duration                    : 45 min 21 s
    Overall bit rate            : 10.0 Mb/s
    Movie name                  : The Expanse T01E01 - CinemaniaHDD.Net
    Encoded date                : UTC 2021-01-06 19:51:39
    Writing application         : mkvmerge v51.0.0 ('I Wish') 64-bit
    Writing library             : libebml v1.4.0 + libmatroska v1.6.2

    Video
    ID                          : 1
    Format                      : AVC
    Format/Info                 : Advanced Video Codec
    Format profile              : High@L4
    Format settings             : CABAC / 4 Ref Frames
    Format settings, CABAC      : Yes
    Format settings, Reference  : 4 frames
    Codec ID                    : V_MPEG4/ISO/AVC
    Duration                    : 45 min 21 s
    Bit rate mode               : Constant
    Bit rate                    : 8 744 kb/s
    Nominal bit rate            : 10 000 kb/s
    Width                       : 1 920 pixels
    Height                      : 1 080 pixels
    Display aspect ratio        : 16:9
    Frame rate mode             : Constant
    Frame rate                  : 23.976 (24000/1001) FPS
    Color space                 : YUV
    Chroma subsampling          : 4:2:0
    Bit depth                   : 8 bits
    Scan type                   : Progressive
    Bits/(Pixel*Frame)          : 0.176
    Stream size                 : 2.77 GiB (87%)
    Title                       : CinemaniaHDD
    Default                     : Yes
    Forced                      : No
    Color range                 : Limited
    Color primaries             : BT.709
    Transfer characteristics    : BT.709
    Matrix coefficients         : BT.709

    Audio #1
    ID                          : 2
    Format                      : E-AC-3
    Format/Info                 : Enhanced AC-3
    Commercial name             : Dolby Digital Plus
    Codec ID                    : A_EAC3
    Duration                    : 45 min 21 s
    Bit rate mode               : Constant
    Bit rate                    : 640 kb/s
    Channel(s)                  : 6 channels
    Channel layout              : L R C LFE Ls Rs
    Sampling rate               : 48.0 kHz
    Frame rate                  : 31.250 FPS (1536 SPF)
    Compression mode            : Lossy
    Stream size                 : 208 MiB (6%)
    Title                       : Español latino [CinemaniaHDD]
    Language                    : Spanish
    Service kind                : Complete Main
    Default                     : Yes
    Forced                      : No

    Audio #2
    ID                          : 3
    Format                      : E-AC-3
    Format/Info                 : Enhanced AC-3
    Commercial name             : Dolby Digital Plus
    Codec ID                    : A_EAC3
    Duration                    : 45 min 21 s
    Bit rate mode               : Constant
    Bit rate                    : 640 kb/s
    Channel(s)                  : 6 channels
    Channel layout              : L R C LFE Ls Rs
    Sampling rate               : 48.0 kHz
    Frame rate                  : 31.250 FPS (1536 SPF)
    Compression mode            : Lossy
    Stream size                 : 208 MiB (6%)
    Title                       : Inglés [CinemaniaHDD]
    Language                    : English
    Service kind                : Complete Main
    Default                     : No
    Forced                      : No

    Text #1
    ID                          : 4
    Format                      : UTF-8
    Codec ID                    : S_TEXT/UTF8
    Codec ID/Info               : UTF-8 Plain Text
    Duration                    : 33 min 12 s
    Bit rate                    : 3 b/s
    Count of elements           : 23
    Stream size                 : 935 Bytes (0%)
    Title                       : Forzados [CinemaniaHDD]
    Language                    : Spanish
    Default                     : Yes
    Forced                      : Yes

    Text #2
    ID                          : 5
    Format                      : UTF-8
    Codec ID                    : S_TEXT/UTF8
    Codec ID/Info               : UTF-8 Plain Text
    Duration                    : 43 min 4 s
    Bit rate                    : 64 b/s
    Count of elements           : 574
    Stream size                 : 20.5 KiB (0%)
    Title                       : Español latino [CinemaniaHDD]
    Language                    : Spanish
    Default                     : No
    Forced                      : No

    Text #3
    ID                          : 6
    Format                      : UTF-8
    Codec ID                    : S_TEXT/UTF8
    Codec ID/Info               : UTF-8 Plain Text
    Duration                    : 44 min 5 s
    Bit rate                    : 66 b/s
    Count of elements           : 677
    Stream size                 : 21.3 KiB (0%)
    Title                       : Inglés [CC] [CinemaniaHDD]
    Language                    : English
    Default                     : No
    Forced                      : No

    Menu
    00:00:00.000                : en:Opening Credits
    00:01:00.000                : en:Prologue
    00:01:36.000                : en:Making an escape
    00:04:25.000                : en:Things work differently around here
    00:09:28.000                : en:Miller gets a new assignment
    00:11:41.000                : en:Life aboard a space station has its perils
    00:15:29.000                : en:Thanks, but no thanks
    00:20:34.000                : en:Nothing lasts forever
    00:23:35.000                : en:Telling a lie never ends well
    00:26:09.000                : en:Things are falling apart
    00:27:07.000                : en:Heads will roll for this
    00:29:45.000                : en:No heroes
    00:32:09.000                : en:A bitter taste of jealousy
    00:33:59.000                : en:Jim's team scans the freighter
    00:35:32.000                : en:The team explores the freighter
    00:39:51.000                : en:Not everything is as it seems
    00:44:20.000                : en:End Credits

     

  • Peso: 3.18 GiB Aprox ---- 122 GiB in 46 Chapters.

Sinopsis

La desaparición de la joven y rica activista, Julie Mao, une las vidas del detective oriundo de Ceres, Joe Miller (Thomas Jane), del capitán casual de una nave, James Holden (Steven Strait) y de la política, Chrisjen Avasarala (Shohreh Aghdashloo). en medio de la tensión política entre la Tierra, Marte y el Cinturón, descubrirán la conspiración más grande de todos los tiempos

Ficha técnica

Video trailer de la película

Enlaces de descarga

Rip de Bluray

Descargar The Expanse (2015 – 2019) Temporada [01/04] AMZN WEB-DL 1080p Latino




Aportes de DPeliculasHDmega la pass es:dpeliculashdmega.org Aportes de CinemaniaHD la pass es:cinemaniahdd.com
Guardado en : Drama , Misterio , Sci-Fi & Fantasy , Series

Películas relacionadas

Comentarios 0