The Exorcist (2016) Primera Temporada WEB-DL 1080p Latino

647 vistas
1 estrella2 estrellas3 estrellas4 estrellas5 estrellas (2 votos, promedio: 5,00 de 5)
Cargando…

Información de The Exorcist (2016) Primera Temporada WEB-DL 1080p Latino

Datos de la película

  • Calidad: WEBDL
  • Audio: Se especifica abajo de la Sinopsis
  • Subtitulos: Español Latino SRT- FORZADOS SRT
  • Resolución: 1920x1080p
  • Formato: MKV
  • Codec: H.264
  • Encoder: Dracarys
  • Mediainfo: Clic para Mostrar Datos Ver
  • Format                                   : Matroska
    Format version                           : Version 4 / Version 2
    File size                                : 3.04 GiB
    Duration                                 : 45 min 22 s
    Overall bit rate mode                    : Variable
    Overall bit rate                         : 9 605 kb/s
    Movie name                               : CinemaniaHDD.net
    Encoded date                             : UTC 2018-10-16 22:46:57
    Writing application                      : mkvmerge v15.0.0 ('Duel with the Devil') 64-bit
    Writing library                          : libebml v1.3.5 + libmatroska v1.4.5

    Video
    ID                                       : 1
    Format                                   : AVC
    Format/Info                              : Advanced Video Codec
    Format profile                           : High@L4
    Format settings                          : CABAC / 4 Ref Frames
    Format settings, CABAC                   : Yes
    Format settings, RefFrames               : 4 frames
    Codec ID                                 : V_MPEG4/ISO/AVC
    Duration                                 : 45 min 22 s
    Bit rate mode                            : Variable
    Bit rate                                 : 8 322 kb/s
    Maximum bit rate                         : 15.0 Mb/s
    Width                                    : 1 920 pixels
    Height                                   : 1 080 pixels
    Display aspect ratio                     : 16:9
    Frame rate mode                          : Constant
    Frame rate                               : 23.976 (24000/1001) FPS
    Color space                              : YUV
    Chroma subsampling                       : 4:2:0
    Bit depth                                : 8 bits
    Scan type                                : Progressive
    Bits/(Pixel*Frame)                       : 0.167
    Stream size                              : 2.64 GiB (87%)
    Language                                 : English
    Default                                  : Yes
    Forced                                   : No
    Color range                              : Limited
    Color primaries                          : BT.709
    Transfer characteristics                 : BT.709
    Matrix coefficients                      : BT.709

    Audio #1
    ID                                       : 2
    Format                                   : E-AC-3
    Format/Info                              : Enhanced Audio Coding 3
    Format settings, Endianness              : Big
    Codec ID                                 : A_EAC3
    Duration                                 : 45 min 22 s
    Bit rate mode                            : Constant
    Bit rate                                 : 640 kb/s
    Channel(s)                               : 6 channels
    Channel positions                        : Front: L C R, Side: L R, LFE
    Sampling rate                            : 48.0 kHz
    Frame rate                               : 187.500 FPS (256 SPF)
    Compression mode                         : Lossy
    Stream size                              : 208 MiB (7%)
    Language                                 : Spanish
    Service kind                             : Complete Main
    Default                                  : Yes
    Forced                                   : No

    Audio #2
    ID                                       : 3
    Format                                   : E-AC-3
    Format/Info                              : Enhanced Audio Coding 3
    Format settings, Endianness              : Big
    Codec ID                                 : A_EAC3
    Duration                                 : 45 min 22 s
    Bit rate mode                            : Constant
    Bit rate                                 : 640 kb/s
    Channel(s)                               : 6 channels
    Channel positions                        : Front: L C R, Side: L R, LFE
    Sampling rate                            : 48.0 kHz
    Frame rate                               : 187.500 FPS (256 SPF)
    Compression mode                         : Lossy
    Stream size                              : 208 MiB (7%)
    Language                                 : English
    Service kind                             : Complete Main
    Default                                  : No
    Forced                                   : No

    Text #1
    ID                                       : 4
    Format                                   : UTF-8
    Codec ID                                 : S_TEXT/UTF8
    Codec ID/Info                            : UTF-8 Plain Text
    Duration                                 : 45 min 19 s
    Bit rate                                 : 59 b/s
    Count of elements                        : 807
    Stream size                              : 19.6 KiB (0%)
    Title                                    : English [SDH]
    Language                                 : English
    Default                                  : No
    Forced                                   : No

    Text #2
    ID                                       : 5
    Format                                   : UTF-8
    Codec ID                                 : S_TEXT/UTF8
    Codec ID/Info                            : UTF-8 Plain Text
    Duration                                 : 33 min 51 s
    Bit rate                                 : 2 b/s
    Count of elements                        : 20
    Stream size                              : 649 Bytes (0%)
    Title                                    : Forzados
    Language                                 : Spanish
    Default                                  : Yes
    Forced                                   : Yes

    Text #3
    ID                                       : 6
    Format                                   : UTF-8
    Codec ID                                 : S_TEXT/UTF8
    Codec ID/Info                            : UTF-8 Plain Text
    Duration                                 : 43 min 8 s
    Bit rate                                 : 44 b/s
    Count of elements                        : 473
    Stream size                              : 14.1 KiB (0%)
    Language                                 : Spanish
    Default                                  : No
    Forced                                   : No

    Menu
    00:00:00.000                             : en:Father Marcus walks through the streets
    00:01:36.000                             : en:Title Sequence
    00:01:44.000                             : en:Good days and bad
    00:05:02.000                             : en:Not hungry
    00:06:05.000                             : en:Priest or not
    00:08:08.000                             : en:Doing my job
    00:13:01.000                             : en:Break
    00:13:02.000                             : en:Not laughing
    00:15:47.000                             : en:Angela seeks help
    00:20:53.000                             : en:Break
    00:20:55.000                             : en:Father Tomas goes to talk with Catherine
    00:26:55.000                             : en:Father Tomas researches exorcism
    00:29:58.000                             : en:Break
    00:30:03.000                             : en:A sign
    00:37:40.000                             : en:Break
    00:37:43.000                             : en:Killed a rat
    00:44:42.000                             : en:Break
    00:44:44.000                             : en:End Credits

     

  • Peso: 2.50 GiB X Capitulo

Sinopsis

En Asia, más precisamente en la zona de Irak, el sacerdote Lankester Merrin descubre en una excavación arqueológica una reliquia que representa al demonio Pazuzu. Tras este hallazgo, Merrin es alertado por una serie de profecías sobre el regreso de esta criatura demoniaca a la tierra. Al mismo tiempo, en Georgetown, una niña de doce años, llamada Regan MacNeil, hija de una famosa actriz, es poseída por una fuerza demoniaca que provoca una serie de cambios psicológicos y físicos en la joven. Esto provoca que, después de una serie de tratamientos inefectivos, la atea madre de Regan llame a un sacerdote para realizar una serie de exorcismos con el fin de liberar a Regan.

The Exorcist
es una serie de misterio e intriga desarrollada para Fox, basado en la novela de William Blatty del mismo nombre y publicada en 1971. Este drama de terror es una reinvención moderna de la historia de la novela, así como también una reinterpretación de la película El Exorcista, dirigida por Willian Fiedkin y estrenada en 1973.

El proyecto está producido por 20th Century Fox Television en asociación con Morgan Creek Productions. Esta adaptación está escrita por Jeremy Slater, quien también ejerce de productor ejecutivo junto a James Robinson, David Robinson y Barbara Wall.

 

 

 

Latino: E-AC3 5.1  –  Ingles: E-AC3 5.1

Creditos Audio Latino: Electr0man

Ficha técnica

  • Titulo original: The Exorcist
  • Fecha de lanzamiento: 23-09-2016 (US)
  • Director: Jeremy Slater
  • Género: Drama, Misterio, Series
  • Puntuación: 5.0 2 votos
  • Duración:
    0h 43m

Video trailer de la película

Enlaces de descarga

Rip de Bluray

Descargar The Exorcist (2016) Primera Temporada WEB-DL 1080p Latino




Aportes de DPeliculasHDmega la pass es:dpeliculashdmega.org Aportes de CinemaniaHD la pass es:cinemaniahdd.com
Guardado en : Drama , Misterio , Series

Películas relacionadas

  • La Monja (2018) Web-DL 1080p Latino

    2018
    La Monja (2018) Web-DL 1080p Latino

    5.0 1h 36m 2018

    Descargar La Monja (2018) Web-DL 1080p Latino, Mega, Google Drive. Cuando una joven monja se suicida...

    Director: Jody Blose

    Género: Misterio

    Actores: Tudor Munteanu

  • El Jefe de la Mafia: Gotti (2018) 1080p Latino

    2018
    El Jefe de la Mafia: Gotti (2018) 1080p Latino

    1.0 1h 50m 2018

    Descargar El Jefe de la Mafia: Gotti (2018) 1080p Latino, Mega, Google Drive. Biopic del famoso mafioso...

    Director: S. B. Weathersby

    Género: Crimen

    Actores: William DeMeo

  • El final del viaje (2018) 1080p Latino

    2018
    El final del viaje (2018) 1080p Latino

    1.0 1h 48m 2018

    Descargar El final del viaje (2018) 1080p Latino, Mega, Google Drive. Un grupo de soldados británicos...

    Director: Saul Dibb

    Género: Bélica

    Actores: Tom Sturridge

  • Un hombre ordinario (2018) Web-DL 1080p Latino

    2017
    Un hombre ordinario (2018) Web-DL 1080p Latino

    5.0 1h 30m 2017

    Descargar Un hombre ordinario (2018) Web-DL 1080p Latino, Mega, Google Drive. Un criminal de guerra escondido...

    Director: Brad Silberling

    Género: Acción

    Actores: Vladimir Cvejić

  • La balada de Buster Scruggs (2018) NF 1080p Latino

    2018
    La balada de Buster Scruggs (2018) NF 1080p Latino

    0.0 2h 12m 2018

    Los siempre singulares Joel y Ethan Cohen escriben y dirigen esta antología de seis historias del Salvaje...

    Director: Joel Coen

    Género: Comedia

    Actores: Zoe Kazan

Comentarios 0