×

¿Problemas para descargar con Mozilla, EDGE? Deshabilita la opción "Abrir vinculos en una pestaña nueva" tal como lo muestra ésta imagen.

The Exorcist (2017) Temporada 2 AMZN WEB-DL 1080p Latino

990 vistas

Información de The Exorcist (2017) Temporada 2 AMZN WEB-DL 1080p Latino

Datos de la película

  • Calidad: WEBDL
  • Audio: Español Latino E-AC3 5.1 AMAZON - Ingles E-AC3 5.1 AMAZON
  • Subtitulos: Español Latino SRT - Ingles SRT
  • Resolución: 1920x1080
  • Formato: MKV
  • Codec: H.264
  • Encoder: cinemaniahdd
  • Mediainfo: Clic para Mostrar Datos Ver
  • The Exorcist T02E01 AMZN WEB-DL 1080p Latino.mkv
    Format                      : Matroska
    Format version              : Version 4
    File size                   : 2.36 GiB
    Duration                    : 42 min 0 s
    Overall bit rate            : 8 033 kb/s
    Movie name                  : The Exorcist T02E01 - CinemaniaHDD.Net
    Encoded date                : UTC 2019-07-20 04:28:49
    Writing application         : mkvmerge v35.0.0 ('All The Love In The World') 64-bit
    Writing library             : libebml v1.3.9 + libmatroska v1.5.2

    Video
    ID                          : 1
    Format                      : AVC
    Format/Info                 : Advanced Video Codec
    Format profile              : High@L4
    Format settings             : CABAC / 4 Ref Frames
    Format settings, CABAC      : Yes
    Format settings, ReFrames   : 4 frames
    Codec ID                    : V_MPEG4/ISO/AVC
    Duration                    : 42 min 0 s
    Bit rate                    : 6 751 kb/s
    Width                       : 1 920 pixels
    Height                      : 1 080 pixels
    Display aspect ratio        : 16:9
    Frame rate mode             : Constant
    Frame rate                  : 23.976 (24000/1001) FPS
    Color space                 : YUV
    Chroma subsampling          : 4:2:0
    Bit depth                   : 8 bits
    Scan type                   : Progressive
    Bits/(Pixel*Frame)          : 0.136
    Stream size                 : 1.98 GiB (84%)
    Title                       : CinemaniaHDD
    Default                     : Yes
    Forced                      : No
    Color range                 : Limited
    Color primaries             : BT.709
    Transfer characteristics    : BT.709
    Matrix coefficients         : BT.709

    Audio #1
    ID                          : 2
    Format                      : E-AC-3
    Format/Info                 : Enhanced AC-3
    Commercial name             : Dolby Digital Plus
    Codec ID                    : A_EAC3
    Duration                    : 42 min 0 s
    Bit rate mode               : Constant
    Bit rate                    : 640 kb/s
    Channel(s)                  : 6 channels
    Channel layout              : L R C LFE Ls Rs
    Sampling rate               : 48.0 kHz
    Frame rate                  : 31.250 FPS (1536 SPF)
    Compression mode            : Lossy
    Stream size                 : 192 MiB (8%)
    Title                       : Español latino [CinemaniaHDD]
    Language                    : Spanish
    Service kind                : Complete Main
    Default                     : Yes
    Forced                      : No

    Audio #2
    ID                          : 3
    Format                      : E-AC-3
    Format/Info                 : Enhanced AC-3
    Commercial name             : Dolby Digital Plus
    Codec ID                    : A_EAC3
    Duration                    : 42 min 0 s
    Bit rate mode               : Constant
    Bit rate                    : 640 kb/s
    Channel(s)                  : 6 channels
    Channel layout              : L R C LFE Ls Rs
    Sampling rate               : 48.0 kHz
    Frame rate                  : 31.250 FPS (1536 SPF)
    Compression mode            : Lossy
    Stream size                 : 192 MiB (8%)
    Title                       : Inglés [CinemaniaHDD]
    Language                    : English
    Service kind                : Complete Main
    Default                     : No
    Forced                      : No

    Text #1
    ID                          : 4
    Format                      : UTF-8
    Codec ID                    : S_TEXT/UTF8
    Codec ID/Info               : UTF-8 Plain Text
    Duration                    : 40 min 46 s
    Bit rate                    : 64 b/s
    Count of elements           : 725
    Stream size                 : 19.3 KiB (0%)
    Title                       : Inglés [CinemaniaHDD]
    Language                    : English
    Default                     : No
    Forced                      : No

    Text #2
    ID                          : 5
    Format                      : UTF-8
    Codec ID                    : S_TEXT/UTF8
    Codec ID/Info               : UTF-8 Plain Text
    Duration                    : 40 min 44 s
    Bit rate                    : 50 b/s
    Count of elements           : 428
    Stream size                 : 15.1 KiB (0%)
    Title                       : Español latino [CinemaniaHDD]
    Language                    : Spanish
    Default                     : No
    Forced                      : No

  • Peso: 2.36 GiB c/u ---- TOTAL 18.3 GiB en 10 capitulos.

Sinopsis

La serie es protagonizada por la ganadora del Premio de la Academia y del Globo de Oro, Geena Davis, quien interpreta a Angela, una madre que comienza a notar extraños comportamientos en su hija Katherine, personaje a cargo de Brianne Howey (Scream Queens).

Los problemas aumentan cuando la familia también comienza a notar presencias y voces en su casa, por lo que decide acudir donde el joven Padre Tomás Ortega, quien encabeza una pequeña pero fiel parroquia en los suburbios de Chicago. El rol del sacerdote es interpretado por el actor mexicano Alfonso Herrera, famoso por sus apariciones en la serie Rebelde (y la consecuente banda juvenil RBD) y cuyas últimas apariciones fueron en series como Sense8. Mientras, en otro lado del mundo, el padre Marcus Brennan (Ben Daniels), lucha contra las fuerzas del mal. Ambos religiosos terminan unidos y enfrentando una alianza contra una fuerza maligna movilizada hace siglos.

Ficha técnica

Video trailer de la película

Enlaces de descarga

Rip de Bluray

Descargar The Exorcist (2017) Temporada 2 AMZN WEB-DL 1080p Latino




Aportes de DPeliculasHDmega la pass es:dpeliculashdmega.org Aportes de CinemaniaHD la pass es:cinemaniahdd.com Aportes recientes:cinemaniahdd.net
Guardado en : Drama , Misterio

Películas relacionadas

descargar The Exorcist (2017) Temporada 2 AMZN WEB-DL 1080p Latino WEBDL 1080p gratis, The Exorcist (2017) Temporada 2 AMZN WEB-DL 1080p Latino WEBDL mega 1 link, The Exorcist (2017) Temporada 2 AMZN WEB-DL 1080p Latino WEBDL pelicula completa, descargar The Exorcist (2017) Temporada 2 AMZN WEB-DL 1080p Latino WEBDL gratis en mega.

The Exorcist (2017) Temporada 2 AMZN WEB-DL 1080p Latino pelicula full hd, The Exorcist (2017) Temporada 2 AMZN WEB-DL 1080p Latino mega latino, The Exorcist (2017) Temporada 2 AMZN WEB-DL 1080p Latino 4k latino, The Exorcist (2017) Temporada 2 AMZN WEB-DL 1080p Latino pelicula completa, The Exorcist (2017) Temporada 2 AMZN WEB-DL 1080p Latino descargar gratis, descargar The Exorcist (2017) Temporada 2 AMZN WEB-DL 1080p Latino pelicula latino, The Exorcist (2017) Temporada 2 AMZN WEB-DL 1080p Latino 1 link mega, The Exorcist (2017) Temporada 2 AMZN WEB-DL 1080p Latino 1 link google drive, The Exorcist (2017) Temporada 2 AMZN WEB-DL 1080p Latino hd 1080p latino.
Comentarios 0