×

¿Problemas para descargar con Mozilla, EDGE? Deshabilita la opción "Abrir vinculos en una pestaña nueva" tal como lo muestra ésta imagen.

The Exorcist (1973) Director’s Cut REMUX 4K HDR Latino – CMHDD

157 vistas

Información de The Exorcist (1973) Director’s Cut REMUX 4K HDR Latino – CMHDD

Datos de la película

  • Calidad: Full 1080p
  • Audio: Español Latino AC3 2.0 BLURAY - Ingles AC3 5.1 BLURAY
  • Subtitulos: Español Latino PGS
  • Resolución: 3840x2160p
  • Formato: MKV
  • Codec: H.264
  • Encoder: Dracarys
  • Mediainfo: Clic para Mostrar Datos Ver
  • Format                      : Matroska
    Format version              : Version 4
    File size                   : 74.9 GiB
    Duration                    : 2 h 12 min
    Overall bit rate mode       : Variable
    Overall bit rate            : 81.1 Mb/s
    Movie name                  : The Exorcist (1973) Director's Cut REMUX 4K HDR Latino - CMHDD
    Encoded date                : UTC 2023-10-04 01:08:42
    Writing application         : mkvmerge v47.0.0 ('Black Flag') 64-bit
    Writing library             : libebml v1.3.10 + libmatroska v1.5.2
    Cover                       : Yes
    Attachments                 : cover.jpg

    Video
    ID                          : 1
    ID in the original source m : 4113 (0x1011)
    Format                      : HEVC
    Format/Info                 : High Efficiency Video Coding
    Format profile              : Main 10@L5.1@High
    HDR format                  : SMPTE ST 2086, HDR10 compatible
    Codec ID                    : V_MPEGH/ISO/HEVC
    Duration                    : 2 h 12 min
    Bit rate                    : 77.3 Mb/s
    Width                       : 3 840 pixels
    Height                      : 2 160 pixels
    Display aspect ratio        : 16:9
    Frame rate mode             : Constant
    Frame rate                  : 23.976 (24000/1001) FPS
    Color space                 : YUV
    Chroma subsampling          : 4:2:0 (Type 2)
    Bit depth                   : 10 bits
    Bits/(Pixel*Frame)          : 0.389
    Stream size                 : 71.5 GiB (95%)
    Default                     : Yes
    Forced                      : No
    Color range                 : Limited
    Color primaries             : BT.2020
    Transfer characteristics    : PQ
    Matrix coefficients         : BT.2020 non-constant
    Mastering display color pri : Display P3
    Mastering display luminance : min: 0.0001 cd/m2, max: 1000 cd/m2
    Maximum Content Light Level : 999 cd/m2
    Maximum Frame-Average Light : 153 cd/m2
    Original source medium      : Blu-ray

    Audio #1
    ID                          : 2
    ID in the original source m : 4352 (0x1100)
    Format                      : MLP FBA 16-ch
    Format/Info                 : Meridian Lossless Packing FBA with 16-channel presentation
    Commercial name             : Dolby TrueHD with Dolby Atmos
    Codec ID                    : A_TRUEHD
    Duration                    : 2 h 12 min
    Bit rate mode               : Variable
    Bit rate                    : 3 004 kb/s
    Maximum bit rate            : 4 647 kb/s
    Channel(s)                  : 8 channels
    Channel layout              : L R C LFE Ls Rs Lb Rb
    Sampling rate               : 48.0 kHz
    Frame rate                  : 1 200.000 FPS (40 SPF)
    Compression mode            : Lossless
    Stream size                 : 2.78 GiB (4%)
    Language                    : English
    Default                     : No
    Forced                      : No
    Original source medium      : Blu-ray
    Number of dynamic objects   : 11
    Bed channel count           : 1 channel
    Bed channel configuration   : LFE

    Audio #2
    ID                          : 3
    ID in the original source m : 4352 (0x1100)
    Format                      : AC-3
    Format/Info                 : Audio Coding 3
    Commercial name             : Dolby Digital
    Codec ID                    : A_AC3
    Duration                    : 2 h 12 min
    Bit rate mode               : Constant
    Bit rate                    : 448 kb/s
    Channel(s)                  : 6 channels
    Channel layout              : L R C LFE Ls Rs
    Sampling rate               : 48.0 kHz
    Frame rate                  : 31.250 FPS (1536 SPF)
    Compression mode            : Lossy
    Stream size                 : 424 MiB (1%)
    Language                    : English
    Service kind                : Complete Main
    Default                     : No
    Forced                      : No
    Original source medium      : Blu-ray

    Audio #3
    ID                          : 4
    ID in the original source m : 4358 (0x1106)
    Format                      : AC-3
    Format/Info                 : Audio Coding 3
    Commercial name             : Dolby Digital
    Format settings             : Dolby Surround
    Codec ID                    : A_AC3
    Duration                    : 2 h 12 min
    Bit rate mode               : Constant
    Bit rate                    : 192 kb/s
    Channel(s)                  : 2 channels
    Channel layout              : L R
    Sampling rate               : 48.0 kHz
    Frame rate                  : 31.250 FPS (1536 SPF)
    Compression mode            : Lossy
    Delay relative to video     : 23 ms
    Stream size                 : 182 MiB (0%)
    Language                    : Spanish
    Service kind                : Complete Main
    Default                     : Yes
    Forced                      : No
    Original source medium      : Blu-ray

    Text #1
    ID                          : 5
    ID in the original source m : 4775 (0x12A7)
    Format                      : PGS
    Muxing mode                 : zlib
    Codec ID                    : S_HDMV/PGS
    Codec ID/Info               : Picture based subtitle format used on BDs/HD-DVDs
    Duration                    : 2 h 7 min
    Bit rate                    : 22.2 kb/s
    Frame rate                  : 0.319 FPS
    Count of elements           : 2436
    Stream size                 : 20.3 MiB (0%)
    Language                    : Spanish
    Default                     : No
    Forced                      : No
    Original source medium      : Blu-ray

    Text #2
    ID                          : 6
    ID in the original source m : 4786 (0x12B2)
    Format                      : PGS
    Muxing mode                 : zlib
    Codec ID                    : S_HDMV/PGS
    Codec ID/Info               : Picture based subtitle format used on BDs/HD-DVDs
    Duration                    : 4 min 26 s
    Bit rate                    : 4 986 b/s
    Frame rate                  : 0.098 FPS
    Count of elements           : 26
    Stream size                 : 162 KiB (0%)
    Language                    : Spanish
    Default                     : No
    Forced                      : No
    Original source medium      : Blu-ray

    Menu
    00:00:00.000                : en:Capítulo 01
    00:04:18.967                : en:Capítulo 02
    00:08:45.608                : en:Capítulo 03
    00:10:29.503                : en:Capítulo 04
    00:13:03.783                : en:Capítulo 05
    00:14:59.940                : en:Capítulo 06
    00:16:13.889                : en:Capítulo 07
    00:17:43.896                : en:Capítulo 08
    00:22:09.369                : en:Capítulo 09
    00:23:36.331                : en:Capítulo 10
    00:25:55.303                : en:Capítulo 11
    00:27:51.461                : en:Capítulo 12
    00:31:05.029                : en:Capítulo 13
    00:32:14.474                : en:Capítulo 14
    00:36:39.488                : en:Capítulo 15
    00:39:15.019                : en:Capítulo 16
    00:41:15.097                : en:Capítulo 17
    00:43:33.736                : en:Capítulo 18
    00:44:47.810                : en:Capítulo 19
    00:47:49.616                : en:Capítulo 20
    00:52:13.421                : en:Capítulo 21
    00:54:16.086                : en:Capítulo 22
    00:57:41.374                : en:Capítulo 23
    01:01:01.532                : en:Capítulo 24
    01:02:53.102                : en:Capítulo 25
    01:08:06.040                : en:Capítulo 26
    01:10:31.185                : en:Capítulo 27
    01:13:04.380                : en:Capítulo 28
    01:17:56.213                : en:Capítulo 29
    01:19:32.642                : en:Capítulo 30
    01:23:38.555                : en:Capítulo 31
    01:25:54.274                : en:Capítulo 32
    01:29:11.387                : en:Capítulo 33
    01:32:55.778                : en:Capítulo 34
    01:35:30.433                : en:Capítulo 35
    01:36:40.419                : en:Capítulo 36
    01:37:49.655                : en:Capítulo 37
    01:39:43.936                : en:Capítulo 38
    01:42:54.084                : en:Capítulo 39
    01:44:18.418                : en:Capítulo 40
    01:48:35.175                : en:Capítulo 41
    01:53:53.493                : en:Capítulo 42
    01:57:35.423                : en:Capítulo 43
    02:00:58.876                : en:Capítulo 44
    02:02:19.957                : en:Capítulo 45
    02:03:05.544                : en:Capítulo 46
    02:06:39.925                : en:Capítulo 47
    02:08:04.551                : en:Capítulo 48

     

  • Peso: 74.9 GiB

Sinopsis

Regan es una niña de doce años víctima de fenómenos paranormales como la levitación o la manifestación de una fuerza sobrehumana. Su madre, aterrorizada, tras someter a su hija a múltiples análisis médicos que no ofrecen ningún resultado, acude a un sacerdote con estudios de psiquiatría. Éste está convencido de que el mal no es físico sino espiritual, es decir, que la niña es víctima de una posesión diabólica. Por eso, con la ayuda de otro sacerdote decide practicar un exorcismo.

Ficha técnica

Video trailer de la película

Enlaces de descarga

Rip de Bluray

Descargar The Exorcist (1973) Director’s Cut REMUX 4K HDR Latino – CMHDD


Aportes de DPeliculasHDmega la pass es:dpeliculashdmega.org Aportes de CinemaniaHD la pass es:cinemaniahdd.com Aportes recientes:cinemaniahdd.net
Guardado en : Terror

Películas relacionadas

  • Fear (2023) AMZN WEB-DL 1080p Latino

    Fear (2023) AMZN WEB-DL 1080p Latino

    2023
    Fear (2023) AMZN WEB-DL 1080p Latino

    1h 38m 2023

    Una escapada muy necesaria y un fin de semana de celebración se convierte en una pesadilla debido a...

    Director: Deon Taylor

    Género: Drama

    Actores: Whylip Lee

  • Lisa Frankenstein (2024) HD 1080p Latino

    Lisa Frankenstein (2024) HD 1080p Latino

    2024
    Lisa Frankenstein (2024) HD 1080p Latino

    1h 42m 2024

    Descargar Lisa Frankenstein (2024) HD 1080p Latino. En 1989, una impopular chica de secundaria llamada...

    Director: Zelda Williams

    Género: Comedia

    Actores: Wendy Miklovic

  • Lisa Frankenstein (2024) PLACEBO Full HD 1080p Latino

    Lisa Frankenstein (2024) PLACEBO Full HD 1080p Latino

    2024
    Lisa Frankenstein (2024) PLACEBO Full HD 1080p Latino

    1h 42m 2024

    Descargar Lisa Frankenstein (2024) PLACEBO Full HD 1080p Latino. En 1989, una impopular chica de secundaria...

    Director: Zelda Williams

    Género: Comedia

    Actores: Wendy Miklovic

  • Lisa Frankenstein (2024) REMUX 1080p Latino

    Lisa Frankenstein (2024) REMUX 1080p Latino

    2024
    Lisa Frankenstein (2024) REMUX 1080p Latino

    1h 42m 2024

    Descargar Lisa Frankenstein (2024) REMUX 1080p Latino. En 1989, una impopular chica de secundaria llamada...

    Director: Zelda Williams

    Género: Comedia

    Actores: Wendy Miklovic

  • Aguas siniestras (2024) HD 1080p Latino

    Aguas siniestras (2024) HD 1080p Latino

    2024
    Aguas siniestras (2024) HD 1080p Latino

    1h 56m 2024

    Descargar Aguas siniestras (2024) HD 1080p Latino. Ray Waller, una estrella del béisbol obligada a retirarse...

    Director: Phil DeSanti

    Género: HD 1080p

    Actores: Wyatt Russell

descargar The Exorcist (1973) Director’s Cut REMUX 4K HDR Latino – CMHDD Full 1080p 1080p gratis, The Exorcist (1973) Director’s Cut REMUX 4K HDR Latino – CMHDD Full 1080p mega 1 link, The Exorcist (1973) Director’s Cut REMUX 4K HDR Latino – CMHDD Full 1080p pelicula completa, descargar The Exorcist (1973) Director’s Cut REMUX 4K HDR Latino – CMHDD Full 1080p gratis en mega.

The Exorcist (1973) Director’s Cut REMUX 4K HDR Latino – CMHDD pelicula full hd, The Exorcist (1973) Director’s Cut REMUX 4K HDR Latino – CMHDD mega latino, The Exorcist (1973) Director’s Cut REMUX 4K HDR Latino – CMHDD 4k latino, The Exorcist (1973) Director’s Cut REMUX 4K HDR Latino – CMHDD pelicula completa, The Exorcist (1973) Director’s Cut REMUX 4K HDR Latino – CMHDD descargar gratis, descargar The Exorcist (1973) Director’s Cut REMUX 4K HDR Latino – CMHDD pelicula latino, The Exorcist (1973) Director’s Cut REMUX 4K HDR Latino – CMHDD 1 link mega, The Exorcist (1973) Director’s Cut REMUX 4K HDR Latino – CMHDD 1 link google drive, The Exorcist (1973) Director’s Cut REMUX 4K HDR Latino – CMHDD hd 1080p latino.
Comentarios 0