×

¿Problemas para descargar con Mozilla, EDGE? Deshabilita la opción "Abrir vinculos en una pestaña nueva" tal como lo muestra ésta imagen.

The Evil Dead (1981) REMUX 1080p Latino

207 vistas

Información de The Evil Dead (1981) REMUX 1080p Latino

Datos de la película

  • Calidad: Full 1080p
  • Audio: Se especifica abajo de la Sinopsis
  • Subtitulos: Español Latino PGS - Ingles PGS
  • Resolución: 1920x1080p
  • Formato: MKV
  • Codec: H.264
  • Encoder: CinefiloCool
  • Mediainfo: Clic para Mostrar Datos Ver
  • The Evil Dead (1981) REMUX 1080p Latino-CMHDD.mkv
    Format                      : Matroska
    Format version              : Version 4
    File size                   : 17.5 GiB
    Duration                    : 1 h 25 min
    Overall bit rate mode       : Variable
    Overall bit rate            : 29.4 Mb/s
    Movie name                  : The Evil Dead (1981) CinemaniaHDD.Net
    Encoded date                : UTC 2023-06-20 04:50:16
    Writing application         : mkvmerge v56.1.0 ('My Friend') 64-bit
    Writing library             : libebml v1.4.2 + libmatroska v1.6.4
    Attachments                 : CINEMANIAHD.png

    Video
    ID                          : 1
    Format                      : AVC
    Format/Info                 : Advanced Video Codec
    Format profile              : High@L4.1
    Format settings             : CABAC / 2 Ref Frames
    Format settings, CABAC      : Yes
    Format settings, Reference  : 2 frames
    Codec ID                    : V_MPEG4/ISO/AVC
    Duration                    : 1 h 25 min
    Bit rate mode               : Variable
    Bit rate                    : 26.9 Mb/s
    Width                       : 1 920 pixels
    Height                      : 1 080 pixels
    Display aspect ratio        : 16:9
    Frame rate mode             : Constant
    Frame rate                  : 23.976 (24000/1001) FPS
    Color space                 : YUV
    Chroma subsampling          : 4:2:0
    Bit depth                   : 8 bits
    Scan type                   : Progressive
    Bits/(Pixel*Frame)          : 0.540
    Stream size                 : 16.0 GiB (91%)
    Title                       : REMUX HD1080p [CinemaniaHDD]
    Default                     : Yes
    Forced                      : No

    Audio #1
    ID                          : 2
    Format                      : AC-3
    Format/Info                 : Audio Coding 3
    Commercial name             : Dolby Digital
    Codec ID                    : A_AC3
    Duration                    : 1 h 25 min
    Bit rate mode               : Constant
    Bit rate                    : 640 kb/s
    Channel(s)                  : 6 channels
    Channel layout              : L R C LFE Ls Rs
    Sampling rate               : 48.0 kHz
    Frame rate                  : 31.250 FPS (1536 SPF)
    Compression mode            : Lossy
    Stream size                 : 391 MiB (2%)
    Title                       : Español Latino [CinemaniaHDD]
    Language                    : Spanish
    Service kind                : Complete Main
    Default                     : Yes
    Forced                      : No

    Audio #2
    ID                          : 3
    Format                      : MLP FBA
    Format/Info                 : Meridian Lossless Packing FBA
    Commercial name             : Dolby TrueHD
    Codec ID                    : A_TRUEHD
    Duration                    : 1 h 25 min
    Bit rate mode               : Variable
    Bit rate                    : 1 155 kb/s
    Maximum bit rate            : 2 178 kb/s
    Channel(s)                  : 6 channels
    Channel layout              : L R C LFE Ls Rs
    Sampling rate               : 48.0 kHz
    Frame rate                  : 1 200.000 FPS (40 SPF)
    Compression mode            : Lossless
    Stream size                 : 706 MiB (4%)
    Title                       : Ingles [CinemaniaHDD]
    Language                    : English
    Default                     : No
    Forced                      : No

    Audio #3
    ID                          : 4
    Format                      : AC-3
    Format/Info                 : Audio Coding 3
    Commercial name             : Dolby Digital
    Codec ID                    : A_AC3
    Duration                    : 1 h 25 min
    Bit rate mode               : Constant
    Bit rate                    : 640 kb/s
    Channel(s)                  : 6 channels
    Channel layout              : L R C LFE Ls Rs
    Sampling rate               : 48.0 kHz
    Frame rate                  : 31.250 FPS (1536 SPF)
    Compression mode            : Lossy
    Stream size                 : 391 MiB (2%)
    Title                       : Ingles AC3 [CinemaniaHDD]
    Language                    : English
    Service kind                : Complete Main
    Default                     : No
    Forced                      : No

    Text #1
    ID                          : 5
    Format                      : PGS
    Muxing mode                 : zlib
    Codec ID                    : S_HDMV/PGS
    Codec ID/Info               : Picture based subtitle format used on BDs/HD-DVDs
    Duration                    : 1 h 21 min
    Bit rate                    : 15.1 kb/s
    Count of elements           : 794
    Stream size                 : 8.79 MiB (0%)
    Title                       : Español-PGS [CinemaniaHDD]
    Language                    : Spanish
    Default                     : No
    Forced                      : No

    Text #2
    ID                          : 6
    Format                      : PGS
    Muxing mode                 : zlib
    Codec ID                    : S_HDMV/PGS
    Codec ID/Info               : Picture based subtitle format used on BDs/HD-DVDs
    Duration                    : 1 h 25 min
    Bit rate                    : 21.2 kb/s
    Count of elements           : 1299
    Stream size                 : 12.9 MiB (0%)
    Title                       : Ingles-PGS [CinemaniaHDD]
    Language                    : English
    Default                     : No
    Forced                      : No

    Text #3
    ID                          : 7
    Format                      : UTF-8
    Codec ID                    : S_TEXT/UTF8
    Codec ID/Info               : UTF-8 Plain Text
    Duration                    : 30 min 47 s
    Bit rate                    : 0 b/s
    Count of elements           : 3
    Stream size                 : 124 Bytes (0%)
    Title                       : Forzados-SRT [CinemaniaHDD]
    Language                    : Spanish
    Default                     : Yes
    Forced                      : No

    Text #4
    ID                          : 8
    Format                      : UTF-8
    Codec ID                    : S_TEXT/UTF8
    Codec ID/Info               : UTF-8 Plain Text
    Duration                    : 1 h 20 min
    Bit rate                    : 18 b/s
    Count of elements           : 328
    Stream size                 : 10.7 KiB (0%)
    Title                       : Español-SRT [CinemaniaHDD]
    Language                    : Spanish
    Default                     : No
    Forced                      : No

    Menu
    00:00:00.000                : Program Start/Road to Damnation (Main Titles)
    00:03:32.670                : The Cabin
    00:07:24.610                : For Whom the Bell Tolls
    00:12:36.922                : Mystery of the Cellar
    00:16:17.935                : Book of the Dead
    00:19:20.993                : Ash and Linda
    00:23:13.141                : Violated By the Woods
    00:27:03.788                : Race with Terror
    00:29:34.606                : Car Trouble
    00:34:25.688                : Possession
    00:38:21.549                : The Thing in the Basement
    00:41:30.237                : Where's Shelly?
    00:43:27.438                : Indestructible
    00:46:39.588                : Hacked to Bits
    00:49:37.557                : Unholy Laughter
    00:54:35.313                : Voices of Deceit
    00:57:33.450                : Taste the Blood of Ash
    01:00:43.431                : Undying Love
    01:06:45.459                : Demon on the Loose
    01:08:54.505                : Rain of Blood
    01:11:56.437                : Ash Alone
    01:15:29.983                : Last Stand
    01:19:06.324                : Demon Mush
    01:21:46.943                : Dawn of the Dead
    01:25:25.870                : End Credits

  • Peso: 17.5 GiB

Sinopsis

Descargar The Evil Dead (1981) REMUX 1080p Latino. Titulada Posesión infernal en España, Diabólico en Argentina y Uruguay, El despertar del Diablo en México y Muerte diabólica en Perú. Cinco chicos van a pasar el fin de semana a una cabaña perdida en un espeso bosque en las montañas de Tennessee. Una vez instalados, y cuando se encuentran cenando, la trampilla que da acceso al sótano se abre de golpe. Extrañados, deciden bajar a investigar. Allí encuentran un magnetófono, un extraño cuchillo ritual y un libro antiquísimo.

Audio Español Latino AC3 5.1 Bluray – Ingles THD 5.1 + AC3 5.1 Bluray

Ficha técnica

  • Titulo original: The Evil Dead
  • Fecha de lanzamiento: 10-09-1981 (United States of America)
  • Director: Sam Raimi
  • Género: Remux, Terror

Video trailer de la película

Enlaces de descarga

Rip de Bluray

Descargar The Evil Dead (1981) REMUX 1080p Latino


Aportes de DPeliculasHDmega la pass es:dpeliculashdmega.org Aportes de CinemaniaHD la pass es:cinemaniahdd.com Aportes recientes:cinemaniahdd.net
Guardado en : Remux , Terror
Etiquetado en :

Películas relacionadas

  • La Duquesa (2008) REMUX 1080p Latino-CMHDD

    La Duquesa (2008) REMUX 1080p Latino-CMHDD

    2008
    La Duquesa (2008) REMUX 1080p Latino-CMHDD

    1h 51m 2008

    Descargar La Duquesa (2008) REMUX 1080p Latino-CMHDD. Hermosa, glamurosa y adorada por el pueblo, Georgiana...

    Director: Saul Dibb

    Género: Drama

    Actores: Thomas Arnold

  • Ferrari (2023) REMUX 1080p Latino

    Ferrari (2023) REMUX 1080p Latino

    2023
    Ferrari (2023) REMUX 1080p Latino

    2h 11m 2023

    Descargar Ferrari (2023) REMUX 1080p Latino. Verano de 1957. El ex piloto de carreras, Ferrari, está...

    Director: Peter Thorell

    Género: Drama

    Actores: Wyatt Carnel

  • Lisa Frankenstein (2024) HD 1080p Latino

    Lisa Frankenstein (2024) HD 1080p Latino

    2024
    Lisa Frankenstein (2024) HD 1080p Latino

    1h 42m 2024

    Descargar Lisa Frankenstein (2024) HD 1080p Latino. En 1989, una impopular chica de secundaria llamada...

    Director: Zelda Williams

    Género: Comedia

    Actores: Wendy Miklovic

descargar The Evil Dead (1981) REMUX 1080p Latino Full 1080p 1080p gratis, The Evil Dead (1981) REMUX 1080p Latino Full 1080p mega 1 link, The Evil Dead (1981) REMUX 1080p Latino Full 1080p pelicula completa, descargar The Evil Dead (1981) REMUX 1080p Latino Full 1080p gratis en mega.

The Evil Dead (1981) REMUX 1080p Latino pelicula full hd, The Evil Dead (1981) REMUX 1080p Latino mega latino, The Evil Dead (1981) REMUX 1080p Latino 4k latino, The Evil Dead (1981) REMUX 1080p Latino pelicula completa, The Evil Dead (1981) REMUX 1080p Latino descargar gratis, descargar The Evil Dead (1981) REMUX 1080p Latino pelicula latino, The Evil Dead (1981) REMUX 1080p Latino 1 link mega, The Evil Dead (1981) REMUX 1080p Latino 1 link google drive, The Evil Dead (1981) REMUX 1080p Latino hd 1080p latino.
Comentarios 0