×

¿Problemas para descargar con Mozilla, EDGE? Deshabilita la opción "Abrir vinculos en una pestaña nueva" tal como lo muestra ésta imagen.

The End Of The F***ing World (2017) Temporada 1 NF WEB-DL 1080p Latino

9.852 vistas

Información de The End Of The F***ing World (2017) Temporada 1 NF WEB-DL 1080p Latino

Datos de la película

  • Calidad: WEBDL
  • Audio: Español Latino AC3 5.1 Netflix - Ingles AC3 5.1 Netflix
  • Subtitulos: Español Latino SRT - Ingles SRT
  • Resolución: 1920x1080
  • Formato: MKV
  • Codec: H.264
  • Encoder: cinemaniahdd
  • Mediainfo: Clic para Mostrar Datos Ver
  • The End of the Fucking World T01E02 NF WEB-DL 1080p Latino.mkv
    Format                      : Matroska
    Format version              : Version 4
    File size                   : 2.60 GiB
    Duration                    : 22 min 2 s
    Overall bit rate            : 16.9 Mb/s
    Movie name                  : The End of the Fucking World T01E02 - CinemaniaHDD.Net
    Encoded date                : UTC 2019-10-10 04:00:34
    Writing application         : mkvmerge v38.0.0 ('The Silent Type') 64-bit
    Writing library             : libebml v1.3.9 + libmatroska v1.5.2

    Video
    ID                          : 1
    Format                      : AVC
    Format/Info                 : Advanced Video Codec
    Format profile              : High@L4.1
    Format settings             : CABAC / 4 Ref Frames
    Format settings, CABAC      : Yes
    Format settings, ReFrames   : 4 frames
    Codec ID                    : V_MPEG4/ISO/AVC
    Duration                    : 22 min 2 s
    Bit rate                    : 16.1 Mb/s
    Width                       : 1 920 pixels
    Height                      : 1 080 pixels
    Display aspect ratio        : 16:9
    Frame rate mode             : Constant
    Frame rate                  : 25.000 FPS
    Color space                 : YUV
    Chroma subsampling          : 4:2:0
    Bit depth                   : 8 bits
    Scan type                   : Progressive
    Bits/(Pixel*Frame)          : 0.311
    Stream size                 : 2.48 GiB (95%)
    Title                       : CinemaniaHDD
    Writing library             : x264 core 152 r2851kMod ba24899
    Encoding settings           : cabac=1 / ref=4 / deblock=1:-3:-3 / analyse=0x3:0x133 / me=umh / subme=10 / psy=1 / fade_compensate=0.00 / psy_rd=1.00:0.00 / mixed_ref=1 / me_range=48 / chroma_me=1 / trellis=2 / 8x8dct=1 / cqm=0 / deadzone=21,11 / fast_pskip=0 / chroma_qp_offset=-2 / threads=12 / lookahead_threads=2 / sliced_threads=0 / nr=0 / decimate=0 / interlaced=0 / bluray_compat=0 / constrained_intra=0 / bframes=8 / b_pyramid=2 / b_adapt=2 / b_bias=0 / direct=3 / weightb=1 / open_gop=0 / weightp=2 / keyint=250 / keyint_min=25 / scenecut=40 / intra_refresh=0 / rc=crf / mbtree=0 / crf=18.0000 / qcomp=0.60 / qpmin=0 / qpmax=69 / qpstep=4 / ip_ratio=1.30 / pb_ratio=1.20 / aq=3:0.80
    Language                    : English
    Default                     : Yes
    Forced                      : No

    Audio #1
    ID                          : 2
    Format                      : AC-3
    Format/Info                 : Audio Coding 3
    Commercial name             : Dolby Digital
    Codec ID                    : A_AC3
    Duration                    : 22 min 2 s
    Bit rate mode               : Constant
    Bit rate                    : 384 kb/s
    Channel(s)                  : 6 channels
    Channel layout              : L R C LFE Ls Rs
    Sampling rate               : 48.0 kHz
    Frame rate                  : 31.250 FPS (1536 SPF)
    Bit depth                   : 16 bits
    Compression mode            : Lossy
    Stream size                 : 60.5 MiB (2%)
    Title                       : Español latino [CinemaniaHDD]
    Language                    : Spanish
    Service kind                : Complete Main
    Default                     : Yes
    Forced                      : No

    Audio #2
    ID                          : 3
    Format                      : AC-3
    Format/Info                 : Audio Coding 3
    Commercial name             : Dolby Digital
    Codec ID                    : A_AC3
    Duration                    : 22 min 2 s
    Bit rate mode               : Constant
    Bit rate                    : 384 kb/s
    Channel(s)                  : 6 channels
    Channel layout              : L R C LFE Ls Rs
    Sampling rate               : 48.0 kHz
    Frame rate                  : 31.250 FPS (1536 SPF)
    Bit depth                   : 16 bits
    Compression mode            : Lossy
    Stream size                 : 60.5 MiB (2%)
    Title                       : Inglés [CinemaniaHDD]
    Language                    : English
    Service kind                : Complete Main
    Default                     : No
    Forced                      : No

    Text #1
    ID                          : 4
    Format                      : UTF-8
    Codec ID                    : S_TEXT/UTF8
    Codec ID/Info               : UTF-8 Plain Text
    Duration                    : 21 min 5 s
    Bit rate                    : 60 b/s
    Count of elements           : 327
    Stream size                 : 9.30 KiB (0%)
    Title                       : Inglés [CinemaniaHDD]
    Language                    : English
    Default                     : No
    Forced                      : No

    Text #2
    ID                          : 5
    Format                      : UTF-8
    Codec ID                    : S_TEXT/UTF8
    Codec ID/Info               : UTF-8 Plain Text
    Duration                    : 20 min 48 s
    Bit rate                    : 44 b/s
    Count of elements           : 256
    Stream size                 : 6.75 KiB (0%)
    Title                       : Español latino [CinemaniaHDD]
    Language                    : Spanish
    Default                     : No
    Forced                      : No

     

  • Peso: 2.60 GiB C/U

Sinopsis

Un psicópata adolescente y una chica rebelde con sed de aventura emprenden un accidentado viaje por carretera en esta serie de humor negro basada en una novela gráfica.

Ficha técnica

Video trailer de la película

Enlaces de descarga

Rip de Bluray

Descargar The End Of The F***ing World (2017) Temporada 1 NF WEB-DL 1080p Latino




Aportes de DPeliculasHDmega la pass es:dpeliculashdmega.org Aportes de CinemaniaHD la pass es:cinemaniahdd.com
Guardado en : Comedia , Drama , Netflix , Series

Películas relacionadas

descargar The End Of The F***ing World (2017) Temporada 1 NF WEB-DL 1080p Latino WEBDL 1080p gratis, The End Of The F***ing World (2017) Temporada 1 NF WEB-DL 1080p Latino WEBDL mega 1 link, The End Of The F***ing World (2017) Temporada 1 NF WEB-DL 1080p Latino WEBDL serie completa, descargar The End Of The F***ing World (2017) Temporada 1 NF WEB-DL 1080p Latino WEBDL gratis en mega.

The End Of The F***ing World (2017) Temporada 1 NF WEB-DL 1080p Latino pelicula full hd, The End Of The F***ing World (2017) Temporada 1 NF WEB-DL 1080p Latino mega latino, The End Of The F***ing World (2017) Temporada 1 NF WEB-DL 1080p Latino 4k latino, The End Of The F***ing World (2017) Temporada 1 NF WEB-DL 1080p Latino pelicula completa, The End Of The F***ing World (2017) Temporada 1 NF WEB-DL 1080p Latino descargar gratis, descargar The End Of The F***ing World (2017) Temporada 1 NF WEB-DL 1080p Latino pelicula latino, The End Of The F***ing World (2017) Temporada 1 NF WEB-DL 1080p Latino 1 link mega, The End Of The F***ing World (2017) Temporada 1 NF WEB-DL 1080p Latino 1 link google drive, The End Of The F***ing World (2017) Temporada 1 NF WEB-DL 1080p Latino hd 1080p latino.
Comentarios 0