×

¿Problemas para descargar con Mozilla, EDGE? Deshabilita la opción "Abrir vinculos en una pestaña nueva" tal como lo muestra ésta imagen.

The Emperor’s New Groove (2000) REMUX 1080p Latino – CMHDD

237 vistas

Información de The Emperor’s New Groove (2000) REMUX 1080p Latino – CMHDD

Datos de la película

  • Calidad: Full 1080p
  • Audio: Español Latino AC3 5.1 BLURAY - Ingles DTS 5.1 BLURAY
  • Subtitulos: Español Latino SRT- FORZADOS SRT
  • Resolución: 1920x1080p
  • Formato: MKV
  • Codec: H.264
  • Encoder: Dracarys
  • Mediainfo: Clic para Mostrar Datos Ver
  • Format                      : Matroska
    Format version              : Version 4
    File size                   : 18.9 GiB
    Duration                    : 1 h 18 min
    Overall bit rate mode       : Variable
    Overall bit rate            : 34.5 Mb/s
    Movie name                  : The Emperor's New Groove (2000) REMUX 1080p Latino - CMHDD
    Encoded date                : UTC 2020-08-09 01:20:18
    Writing application         : mkvmerge v46.0.0 ('No Deeper Escape') 64-bit
    Writing library             : libebml v1.3.10 + libmatroska v1.5.2

    Video
    ID                          : 1
    Format                      : AVC
    Format/Info                 : Advanced Video Codec
    Format profile              : High@L4.1
    Format settings             : CABAC / 4 Ref Frames
    Format settings, CABAC      : Yes
    Format settings, Reference  : 4 frames
    Codec ID                    : V_MPEG4/ISO/AVC
    Duration                    : 1 h 18 min
    Bit rate mode               : Variable
    Bit rate                    : 29.5 Mb/s
    Maximum bit rate            : 35.0 Mb/s
    Width                       : 1 920 pixels
    Height                      : 1 080 pixels
    Display aspect ratio        : 16:9
    Frame rate mode             : Constant
    Frame rate                  : 23.976 (24000/1001) FPS
    Color space                 : YUV
    Chroma subsampling          : 4:2:0
    Bit depth                   : 8 bits
    Scan type                   : Progressive
    Bits/(Pixel*Frame)          : 0.594
    Stream size                 : 16.2 GiB (85%)
    Language                    : English
    Default                     : Yes
    Forced                      : No

    Audio #1
    ID                          : 2
    Format                      : AC-3
    Format/Info                 : Audio Coding 3
    Commercial name             : Dolby Digital
    Codec ID                    : A_AC3
    Duration                    : 1 h 18 min
    Bit rate mode               : Constant
    Bit rate                    : 640 kb/s
    Channel(s)                  : 6 channels
    Channel layout              : L R C LFE Ls Rs
    Sampling rate               : 48.0 kHz
    Frame rate                  : 31.250 FPS (1536 SPF)
    Compression mode            : Lossy
    Stream size                 : 359 MiB (2%)
    Language                    : Spanish
    Service kind                : Complete Main
    Default                     : Yes
    Forced                      : No

    Audio #2
    ID                          : 3
    Format                      : DTS XLL
    Format/Info                 : Digital Theater Systems
    Commercial name             : DTS-HD Master Audio
    Codec ID                    : A_DTS
    Duration                    : 1 h 18 min
    Bit rate mode               : Variable
    Bit rate                    : 4 359 kb/s
    Channel(s)                  : 6 channels
    Channel layout              : C L R Ls Rs LFE
    Sampling rate               : 48.0 kHz
    Frame rate                  : 93.750 FPS (512 SPF)
    Bit depth                   : 24 bits
    Compression mode            : Lossless
    Stream size                 : 2.39 GiB (13%)
    Default                     : No
    Forced                      : No

    Text #1
    ID                          : 4
    Format                      : UTF-8
    Codec ID                    : S_TEXT/UTF8
    Codec ID/Info               : UTF-8 Plain Text
    Duration                    : 1 min 21 s
    Bit rate                    : 8 b/s
    Count of elements           : 2
    Stream size                 : 82.0 Bytes (0%)
    Language                    : Spanish
    Default                     : Yes
    Forced                      : No

    Text #2
    ID                          : 5
    Format                      : UTF-8
    Codec ID                    : S_TEXT/UTF8
    Codec ID/Info               : UTF-8 Plain Text
    Duration                    : 1 h 16 min
    Bit rate                    : 67 b/s
    Count of elements           : 1071
    Stream size                 : 37.9 KiB (0%)
    Language                    : Spanish
    Default                     : No
    Forced                      : No

    Text #3
    ID                          : 6
    Format                      : PGS
    Muxing mode                 : zlib
    Codec ID                    : S_HDMV/PGS
    Codec ID/Info               : Picture based subtitle format used on BDs/HD-DVDs
    Duration                    : 1 h 16 min
    Bit rate                    : 56.9 kb/s
    Count of elements           : 2142
    Stream size                 : 31.0 MiB (0%)
    Language                    : Spanish
    Default                     : No
    Forced                      : No

    Text #4
    ID                          : 7
    Format                      : PGS
    Muxing mode                 : zlib
    Codec ID                    : S_HDMV/PGS
    Codec ID/Info               : Picture based subtitle format used on BDs/HD-DVDs
    Duration                    : 1 min 21 s
    Bit rate                    : 7 727 b/s
    Count of elements           : 4
    Stream size                 : 76.8 KiB (0%)
    Language                    : Spanish
    Default                     : No
    Forced                      : No

    Menu
    00:00:00.000                : :Chapter 01
    00:01:24.250                : :Chapter 02
    00:03:57.320                : :Chapter 03
    00:04:27.517                : :Chapter 04
    00:05:29.495                : :Chapter 05
    00:08:08.488                : :Chapter 06
    00:10:36.135                : :Chapter 07
    00:11:30.439                : :Chapter 08
    00:12:50.644                : :Chapter 09
    00:17:10.029                : :Chapter 10
    00:20:11.418                : :Chapter 11
    00:23:28.490                : :Chapter 12
    00:27:06.958                : :Chapter 13
    00:29:12.667                : :Chapter 14
    00:34:02.957                : :Chapter 15
    00:35:49.522                : :Chapter 16
    00:36:30.313                : :Chapter 17
    00:38:23.134                : :Chapter 18
    00:43:54.381                : :Chapter 19
    00:46:32.331                : :Chapter 20
    00:53:05.557                : :Chapter 21
    00:54:08.912                : :Chapter 22
    00:55:06.303                : :Chapter 23
    00:57:25.191                : :Chapter 24
    01:00:41.554                : :Chapter 25
    01:01:44.534                : :Chapter 26
    01:09:54.899                : :Chapter 27
    01:12:16.832                : :Chapter 28
    01:18:23.949                : :Chapter 29

  • Peso: 18.9 GiB

Sinopsis

El arrogante y egoísta emperador Cuzco es traicionado y convertido en llama por la ambiciosa Yzma y su guardaespaldas Kronk. El emperador, que una vez lo tuvo todo, se verá abocado a confiar en un llano y simpático campesino llamado Pacha, para encontrarse a sí mismo.

Ficha técnica

Video trailer de la película

Enlaces de descarga

Rip de Bluray

Descargar The Emperor’s New Groove (2000) REMUX 1080p Latino – CMHDD




Aportes de DPeliculasHDmega la pass es:dpeliculashdmega.org Aportes de CinemaniaHD la pass es:cinemaniahdd.com

Películas relacionadas

descargar The Emperor’s New Groove (2000) REMUX 1080p Latino – CMHDD Full 1080p 1080p gratis, The Emperor’s New Groove (2000) REMUX 1080p Latino – CMHDD Full 1080p mega 1 link, The Emperor’s New Groove (2000) REMUX 1080p Latino – CMHDD Full 1080p pelicula completa, descargar The Emperor’s New Groove (2000) REMUX 1080p Latino – CMHDD Full 1080p gratis en mega.

The Emperor’s New Groove (2000) REMUX 1080p Latino – CMHDD pelicula full hd, The Emperor’s New Groove (2000) REMUX 1080p Latino – CMHDD mega latino, The Emperor’s New Groove (2000) REMUX 1080p Latino – CMHDD 4k latino, The Emperor’s New Groove (2000) REMUX 1080p Latino – CMHDD pelicula completa, The Emperor’s New Groove (2000) REMUX 1080p Latino – CMHDD descargar gratis, descargar The Emperor’s New Groove (2000) REMUX 1080p Latino – CMHDD pelicula latino, The Emperor’s New Groove (2000) REMUX 1080p Latino – CMHDD 1 link mega, The Emperor’s New Groove (2000) REMUX 1080p Latino – CMHDD 1 link google drive, The Emperor’s New Groove (2000) REMUX 1080p Latino – CMHDD hd 1080p latino.
Comentarios 0