The Duchess (2020) Temporada 1 NF WEB-DL 1080p Latino

46 vistas
1 estrella2 estrellas3 estrellas4 estrellas5 estrellas (1 votos, promedio: 5,00 de 5)
Cargando...

Información de The Duchess (2020) Temporada 1 NF WEB-DL 1080p Latino

Datos de la película

  • Calidad: WEBDL
  • Audio: Español Latino AC3 5.1 Netflix - Ingles AC3 5.1 Netflix
  • Subtitulos: Español Latino SRT- FORZADOS SRT
  • Resolución: 1920x1080
  • Formato: MKV
  • Codec: H.264
  • Encoder: cinemaniahdd
  • Mediainfo: Clic para Mostrar Datos Ver
  • The Duchess T01E01 NF WEB-DL 1080p Latino [CNMNHDD].mkv
    Format                      : Matroska
    Format version              : Version 4
    File size                   : 1.56 GiB
    Duration                    : 28 min 12 s
    Overall bit rate mode       : Variable
    Overall bit rate            : 7 916 kb/s
    Movie name                  : The Duchess T01E01 - CinemaniaHDD.Net
    Encoded date                : UTC 2020-09-11 19:23:02
    Writing application         : mkvmerge v46.0.0 ('No Deeper Escape') 64-bit
    Writing library             : libebml v1.3.10 + libmatroska v1.5.2 / Lavf58.28.101

    Video
    ID                          : 1
    Format                      : AVC
    Format/Info                 : Advanced Video Codec
    Format profile              : High@L4
    Format settings             : CABAC / 4 Ref Frames
    Format settings, CABAC      : Yes
    Format settings, Reference  : 4 frames
    Codec ID                    : V_MPEG4/ISO/AVC
    Duration                    : 28 min 11 s
    Bit rate mode               : Variable
    Bit rate                    : 7 146 kb/s
    Maximum bit rate            : 20.0 Mb/s
    Width                       : 1 920 pixels
    Height                      : 1 080 pixels
    Display aspect ratio        : 16:9
    Frame rate mode             : Constant
    Frame rate                  : 25.000 FPS
    Color space                 : YUV
    Chroma subsampling          : 4:2:0
    Bit depth                   : 8 bits
    Scan type                   : Progressive
    Bits/(Pixel*Frame)          : 0.138
    Stream size                 : 1.41 GiB (90%)
    Title                       : CinemaniaHDD
    Writing library             : x264 core 148 r2722 1b0121b
    Encoding settings           : cabac=1 / ref=4 / deblock=1:0:0 / analyse=0x3:0x111 / me=umh / subme=10 / psy=1 / psy_rd=1.00:0.00 / mixed_ref=1 / me_range=120 / chroma_me=1 / trellis=2 / 8x8dct=1 / cqm=0 / deadzone=21,11 / fast_pskip=1 / chroma_qp_offset=-2 / threads=8 / lookahead_threads=2 / sliced_threads=0 / nr=0 / decimate=1 / interlaced=0 / bluray_compat=0 / stitchable=1 / constrained_intra=0 / bframes=16 / b_pyramid=2 / b_adapt=2 / b_bias=0 / direct=3 / weightb=1 / open_gop=0 / weightp=2 / keyint=250 / keyint_min=126 / scenecut=0 / intra_refresh=0 / rc_lookahead=250 / rc=crf / mbtree=1 / crf=17.0 / qcomp=0.50 / qpmin=6 / qpmax=51 / qpstep=4 / vbv_maxrate=20000 / vbv_bufsize=25000 / crf_max=0.0 / nal_hrd=vbr / filler=0 / ip_ratio=1.40 / aq=1:0.80
    Default                     : Yes
    Forced                      : No

    Audio #1
    ID                          : 2
    Format                      : AC-3
    Format/Info                 : Audio Coding 3
    Commercial name             : Dolby Digital
    Codec ID                    : A_AC3
    Duration                    : 28 min 12 s
    Bit rate mode               : Constant
    Bit rate                    : 384 kb/s
    Channel(s)                  : 6 channels
    Channel layout              : L R C LFE Ls Rs
    Sampling rate               : 48.0 kHz
    Frame rate                  : 31.250 FPS (1536 SPF)
    Compression mode            : Lossy
    Stream size                 : 77.5 MiB (5%)
    Title                       : Español latino [CinemaniaHDD]
    Language                    : Spanish
    Service kind                : Complete Main
    Default                     : Yes
    Forced                      : No

    Audio #2
    ID                          : 3
    Format                      : AC-3
    Format/Info                 : Audio Coding 3
    Commercial name             : Dolby Digital
    Codec ID                    : A_AC3
    Duration                    : 28 min 12 s
    Bit rate mode               : Constant
    Bit rate                    : 384 kb/s
    Channel(s)                  : 6 channels
    Channel layout              : L R C LFE Ls Rs
    Sampling rate               : 48.0 kHz
    Frame rate                  : 31.250 FPS (1536 SPF)
    Compression mode            : Lossy
    Stream size                 : 77.5 MiB (5%)
    Title                       : Inglés [CinemaniaHDD]
    Language                    : English
    Service kind                : Complete Main
    Default                     : No
    Forced                      : No

    Text #1
    ID                          : 4
    Format                      : UTF-8
    Codec ID                    : S_TEXT/UTF8
    Codec ID/Info               : UTF-8 Plain Text
    Duration                    : 27 min 13 s
    Bit rate                    : 77 b/s
    Count of elements           : 451
    Stream size                 : 15.4 KiB (0%)
    Title                       : Español latino [CinemaniaHDD]
    Language                    : Spanish
    Default                     : No
    Forced                      : No

  • Peso: 1.56 GiB C/U --- 6.57 GiB en 6 Chapters.

Sinopsis

Katherine Ryan interpreta a una madre soltera que considera embarazarse de nuevo de su archienemigo: el padre su hija. ¿Podrán dos errores hacer otro acierto?

Ficha técnica

Video trailer de la película

Enlaces de descarga

Rip de Bluray

Descargar The Duchess (2020) Temporada 1 NF WEB-DL 1080p Latino




Aportes de DPeliculasHDmega la pass es:dpeliculashdmega.org Aportes de CinemaniaHD la pass es:cinemaniahdd.com
Guardado en : Comedia , Drama , Netflix , Series

Películas relacionadas

  • Doom Patrol (2020) Temporada 2 HMAX WEB-DL 1080p Latino

    Doom Patrol (2020) Temporada 2 HMAX WEB-DL 1080p Latino

    2019
    Doom Patrol (2020) Temporada 2 HMAX WEB-DL 1080p Latino

    5.0 0h 49m 2019

    Luego de lo ocurrido en Danny La Calle, nuestra querida banda de inadaptados se ve forzada a lidiar con...

    Director: Jeremy Carver

    Género: Action & Adventure

    Actores: Timothy Dalton

  • His House (2020) NF WEB-DL 1080p Latino

    His House (2020) NF WEB-DL 1080p Latino

    2020
    His House (2020) NF WEB-DL 1080p Latino

    5.0 1h 33m 2020

    Una joven pareja de Sudán del Sur busca refugiarse y comenzar una nueva vida en Inglaterra, pero los...

    Director: Remi Weekes

    Género: Netflix

    Actores: Yvonne Campbell

  • Rogue City (2020) NF WEB-DL 1080p Latino

    Rogue City (2020) NF WEB-DL 1080p Latino

    2020
    Rogue City (2020) NF WEB-DL 1080p Latino

    5.0 0h 0m 2020

    Atrapado entre la corrupción de las fuerzas del orden y el enfrentamiento de bandas en Marsella, un...

    Director: Olivier Marchal

    Género: Netflix

    Actores: Stanislas Merhar

Comentarios 0