×

¿Problemas para descargar con Mozilla, EDGE? Deshabilita la opción "Abrir vinculos en una pestaña nueva" tal como lo muestra ésta imagen.

La Duquesa (2008) Full HD 1080p Latino-CMHDD

74 vistas

Información de La Duquesa (2008) Full HD 1080p Latino-CMHDD

Datos de la película

  • Calidad: Full 1080p
  • Audio: Se especifica abajo de la Sinopsis
  • Subtitulos: Español Latino PGS - Ingles PGS
  • Resolución: 1920x1080p
  • Formato: MKV
  • Codec: H.264
  • Encoder: CinefiloCool
  • Mediainfo: Clic para Mostrar Datos Ver
  • The.Duchess.2008.Bluray.FullHD.1080p.x264.Latino-CC@CMHDD.mkv
    Format                      : Matroska
    Format version              : Version 4
    File size                   : 6.49 GiB
    Duration                    : 1 h 50 min
    Overall bit rate            : 8 448 kb/s
    Movie name                  : The Duchess (2008) CinemaniaHDD.Net
    Encoded date                : UTC 2024-04-14 20:26:20
    Writing application         : mkvmerge v56.1.0 ('My Friend') 64-bit
    Writing library             : libebml v1.4.2 + libmatroska v1.6.4
    Attachments                 : CINEMANIAHD.png

    Video
    ID                          : 1
    Format                      : AVC
    Format/Info                 : Advanced Video Codec
    Format profile              : High@L4.1
    Format settings             : CABAC / 4 Ref Frames
    Format settings, CABAC      : Yes
    Format settings, Reference  : 4 frames
    Codec ID                    : V_MPEG4/ISO/AVC
    Duration                    : 1 h 50 min
    Bit rate                    : 5 642 kb/s
    Width                       : 1 920 pixels
    Height                      : 1 080 pixels
    Display aspect ratio        : 16:9
    Frame rate mode             : Constant
    Frame rate                  : 23.976 (24000/1001) FPS
    Color space                 : YUV
    Chroma subsampling          : 4:2:0
    Bit depth                   : 8 bits
    Scan type                   : Progressive
    Bits/(Pixel*Frame)          : 0.113
    Stream size                 : 4.34 GiB (67%)
    Title                       : Full HD1080p [CinemaniaHDD]
    Writing library             : x264 core 163 r3059 b684ebe0
    Encoding settings           : cabac=1 / ref=4 / deblock=1:0:0 / analyse=0x3:0x133 / me=tesa / subme=11 / psy=1 / psy_rd=1.00:0.00 / mixed_ref=1 / me_range=24 / chroma_me=1 / trellis=2 / 8x8dct=1 / cqm=0 / deadzone=21,11 / fast_pskip=0 / chroma_qp_offset=-2 / threads=24 / lookahead_threads=6 / sliced_threads=0 / nr=0 / decimate=1 / interlaced=0 / bluray_compat=0 / constrained_intra=0 / bframes=16 / b_pyramid=2 / b_adapt=2 / b_bias=0 / direct=3 / weightb=1 / open_gop=0 / weightp=2 / keyint=240 / keyint_min=24 / scenecut=40 / intra_refresh=0 / rc_lookahead=60 / rc=crf / mbtree=1 / crf=20.0 / qcomp=0.60 / qpmin=0 / qpmax=69 / qpstep=4 / vbv_maxrate=62500 / vbv_bufsize=78125 / crf_max=0.0 / nal_hrd=none / filler=0 / ip_ratio=1.40 / aq=1:1.00
    Default                     : Yes
    Forced                      : Yes
    Color range                 : Limited
    Color primaries             : BT.709
    Transfer characteristics    : BT.709
    Matrix coefficients         : BT.709

    Audio #1
    ID                          : 2
    Format                      : AC-3
    Format/Info                 : Audio Coding 3
    Commercial name             : Dolby Digital
    Codec ID                    : A_AC3
    Duration                    : 1 h 50 min
    Bit rate mode               : Constant
    Bit rate                    : 640 kb/s
    Channel(s)                  : 6 channels
    Channel layout              : L R C LFE Ls Rs
    Sampling rate               : 48.0 kHz
    Frame rate                  : 31.250 FPS (1536 SPF)
    Compression mode            : Lossy
    Stream size                 : 504 MiB (8%)
    Title                       : Español Latino AC3 [CinemaniaHDD]
    Language                    : Spanish
    Service kind                : Complete Main
    Default                     : Yes
    Forced                      : Yes

    Audio #2
    ID                          : 3
    Format                      : E-AC-3
    Format/Info                 : Enhanced AC-3
    Commercial name             : Dolby Digital Plus
    Codec ID                    : A_EAC3
    Duration                    : 1 h 50 min
    Bit rate mode               : Constant
    Bit rate                    : 640 kb/s
    Channel(s)                  : 6 channels
    Channel layout              : L R C LFE Ls Rs
    Sampling rate               : 48.0 kHz
    Frame rate                  : 31.250 FPS (1536 SPF)
    Compression mode            : Lossy
    Delay relative to video     : 1 s 489 ms
    Stream size                 : 504 MiB (8%)
    Title                       : Español Latino EAC3 [CinemaniaHDD]
    Language                    : Spanish
    Service kind                : Complete Main
    Default                     : No
    Forced                      : No

    Audio #3
    ID                          : 4
    Format                      : DTS
    Format/Info                 : Digital Theater Systems
    Codec ID                    : A_DTS
    Duration                    : 1 h 50 min
    Bit rate mode               : Constant
    Bit rate                    : 1 509 kb/s
    Channel(s)                  : 6 channels
    Channel layout              : C L R Ls Rs LFE
    Sampling rate               : 48.0 kHz
    Frame rate                  : 93.750 FPS (512 SPF)
    Bit depth                   : 16 bits
    Compression mode            : Lossy
    Stream size                 : 1.16 GiB (18%)
    Title                       : Ingles [CinemaniaHDD]
    Language                    : English
    Default                     : No
    Forced                      : No

    Text #1
    ID                          : 5
    Format                      : PGS
    Muxing mode                 : zlib
    Codec ID                    : S_HDMV/PGS
    Codec ID/Info               : Picture based subtitle format used on BDs/HD-DVDs
    Duration                    : 1 h 42 min
    Bit rate                    : 23.8 kb/s
    Count of elements           : 1678
    Stream size                 : 17.4 MiB (0%)
    Title                       : Español-PGS [CinemaniaHDD]
    Language                    : Spanish
    Default                     : No
    Forced                      : No

    Text #2
    ID                          : 6
    Format                      : PGS
    Muxing mode                 : zlib
    Codec ID                    : S_HDMV/PGS
    Codec ID/Info               : Picture based subtitle format used on BDs/HD-DVDs
    Duration                    : 1 h 41 min
    Bit rate                    : 25.4 kb/s
    Count of elements           : 1646
    Stream size                 : 18.5 MiB (0%)
    Title                       : Ingles-PGS [CinemaniaHDD]
    Language                    : English
    Default                     : No
    Forced                      : No

    Text #3
    ID                          : 7
    Format                      : UTF-8
    Codec ID                    : S_TEXT/UTF8
    Codec ID/Info               : UTF-8 Plain Text
    Duration                    : 1 h 42 min
    Bit rate                    : 0 b/s
    Count of elements           : 16
    Stream size                 : 595 Bytes (0%)
    Title                       : Forzados-SRT [CinemaniaHDD]
    Language                    : Spanish
    Default                     : Yes
    Forced                      : Yes

    Text #4
    ID                          : 8
    Format                      : UTF-8
    Codec ID                    : S_TEXT/UTF8
    Codec ID/Info               : UTF-8 Plain Text
    Duration                    : 1 h 42 min
    Bit rate                    : 38 b/s
    Count of elements           : 839
    Stream size                 : 28.5 KiB (0%)
    Title                       : Español-SRT [CinemaniaHDD]
    Language                    : Spanish
    Default                     : No
    Forced                      : No

    Menu
    00:00:00.000                : Chapter 1
    00:06:24.467                : Chapter 2
    00:12:40.510                : Chapter 3
    00:19:45.518                : Chapter 4
    00:27:13.966                : Chapter 5
    00:35:20.994                : Chapter 6
    00:41:53.428                : Chapter 7
    00:49:37.725                : Chapter 8
    00:58:51.778                : Chapter 9
    01:04:44.964                : Chapter 10
    01:11:15.646                : Chapter 11
    01:16:21.619                : Chapter 12
    01:22:34.533                : Chapter 13
    01:28:51.701                : Chapter 14
    01:34:45.972                : Chapter 15
    01:43:16.273                : Chapter 16

  • Peso: 6.49 GiB

Sinopsis

Descargar La Duquesa (2008) Full HD 1080p Latino-CMHDD. Hermosa, glamurosa y adorada por el pueblo, Georgiana Spencer fue, como su descendiente Diana de Gales, la mujer más fascinante de su época. Pero mientras que su belleza y su carisma le forjó un nombre en la historia, el amor siempre se le escapó. Casada muy joven con uno de los hombres más ricos de Inglaterra, el duque de Devonshire, fue confidente íntima de ministros y de la Casa Real, llegando a ser un icono de la moda, madre adorada e influyente política para el partido liberal. Sin embargo, en el núcleo de su historia está la búsqueda desesperada de afecto y amor. Desde el apasionado pero fatídico romance con Charles Grey hasta el complicado triángulo amoroso con su marido y su mejor amiga lady Foster.

Audio Español Latino EAC3 5.1 + AC3 5.1 Web – Ingles DTS 5.1 Bluray

Ficha técnica

Video trailer de la película

Enlaces de descarga

Rip de Bluray

Descargar La Duquesa (2008) Full HD 1080p Latino-CMHDD




Aportes de DPeliculasHDmega la pass es:dpeliculashdmega.org Aportes de CinemaniaHD la pass es:cinemaniahdd.com Aportes recientes:cinemaniahdd.net

Películas relacionadas

  • Viviendo con mi ex (2006) REMUX 1080p Latino-CMHDD

    Viviendo con mi ex (2006) REMUX 1080p Latino-CMHDD

    2006
    Viviendo con mi ex (2006) REMUX 1080p Latino-CMHDD

    1h 46m 2006

    Descargar Viviendo con mi ex (2006) REMUX 1080p Latino-CMHDD. Relato sobre las consecuencias de una ruptura...

    Director: Todd Amateau

    Género: Comedia

    Actores: William Dick

  • La Otra Cara de Dorian (2023) WEB-DL 1080p Latino

    La Otra Cara de Dorian (2023) WEB-DL 1080p Latino

    2023
    La Otra Cara de Dorian (2023) WEB-DL 1080p Latino

    1h 40m 2023

    Descargar La Otra Cara de Dorian (2023) WEB-DL 1080p Latino. Una versión moderna del cuento de Oscar...

    Director: Richard John Taylor

    Género: Drama

    Actores: Triana Terry

  • Noche de Bodas (2024) WEB-DL 1080p Latino

    Noche de Bodas (2024) WEB-DL 1080p Latino

    2024
    Noche de Bodas (2024) WEB-DL 1080p Latino

    0h 0m 2024

    Descargar Noche de Bodas (2024) WEB-DL 1080p Latino. Lucía y Nico, la pareja del siglo, están a punto...

    Director: Osvaldo Benavides

    Género: Comedia

    Actores: Verónica Langer

  • Arthur: Una Amistad sin Limites (2024) HD 1080p Latino

    Arthur: Una Amistad sin Limites (2024) HD 1080p Latino

    2024
    Arthur: Una Amistad sin Limites (2024) HD 1080p Latino

    1h 47m 2024

    Descargar Arthur: Una Amistad sin Limites (2024) HD 1080p Latino. Mikael Lindnord, el capitán del equipo...

    Director: Simon Cellan Jones

    Género: Aventura

    Actores: Zamantha Díaz

descargar La Duquesa (2008) Full HD 1080p Latino-CMHDD Full 1080p 1080p gratis, La Duquesa (2008) Full HD 1080p Latino-CMHDD Full 1080p mega 1 link, La Duquesa (2008) Full HD 1080p Latino-CMHDD Full 1080p pelicula completa, descargar La Duquesa (2008) Full HD 1080p Latino-CMHDD Full 1080p gratis en mega.

La Duquesa (2008) Full HD 1080p Latino-CMHDD pelicula full hd, La Duquesa (2008) Full HD 1080p Latino-CMHDD mega latino, La Duquesa (2008) Full HD 1080p Latino-CMHDD 4k latino, La Duquesa (2008) Full HD 1080p Latino-CMHDD pelicula completa, La Duquesa (2008) Full HD 1080p Latino-CMHDD descargar gratis, descargar La Duquesa (2008) Full HD 1080p Latino-CMHDD pelicula latino, La Duquesa (2008) Full HD 1080p Latino-CMHDD 1 link mega, La Duquesa (2008) Full HD 1080p Latino-CMHDD 1 link google drive, La Duquesa (2008) Full HD 1080p Latino-CMHDD hd 1080p latino.
Comentarios 0