×

¿Problemas para descargar con Mozilla, EDGE? Deshabilita la opción "Abrir vinculos en una pestaña nueva" tal como lo muestra ésta imagen.

Los Soñadores (2003) REMUX 1080p Latino

693 vistas

Información de Los Soñadores (2003) REMUX 1080p Latino

Datos de la película

  • Calidad: Full 1080p
  • Audio: Español Latino AC3 2.0 DVD - Ingles DTS 5.1 BLURAY
  • Subtitulos: Español Latino PGS - Ingles PGS
  • Resolución: 1920x1080p
  • Formato: MKV
  • Codec: H.264
  • Encoder: CinefiloCool
  • Mediainfo: Clic para Mostrar Datos Ver
  • Los Soñadores (2003) REMUX 1080p Latino-CMHDD.mkv
    Format                      : Matroska
    Format version              : Version 4
    File size                   : 25.9 GiB
    Duration                    : 1 h 54 min
    Overall bit rate mode       : Variable
    Overall bit rate            : 32.3 Mb/s
    Movie name                  : The Dreamers (2003) CinemaniaHDD.Net
    Encoded date                : UTC 2022-05-20 06:33:41
    Writing application         : mkvmerge v56.1.0 ('My Friend') 64-bit
    Writing library             : libebml v1.4.2 + libmatroska v1.6.4
    Attachments                 : CINEMANIAHD.png

    Video
    ID                          : 1
    Format                      : AVC
    Format/Info                 : Advanced Video Codec
    Format profile              : High@L4.1
    Format settings             : CABAC / 4 Ref Frames
    Format settings, CABAC      : Yes
    Format settings, Reference  : 4 frames
    Format settings, GOP        : M=3, N=24
    Codec ID                    : V_MPEG4/ISO/AVC
    Duration                    : 1 h 54 min
    Bit rate mode               : Variable
    Bit rate                    : 28.0 Mb/s
    Maximum bit rate            : 37.0 Mb/s
    Width                       : 1 920 pixels
    Height                      : 1 080 pixels
    Display aspect ratio        : 16:9
    Frame rate mode             : Constant
    Frame rate                  : 23.976 (24000/1001) FPS
    Standard                    : NTSC
    Color space                 : YUV
    Chroma subsampling          : 4:2:0
    Bit depth                   : 8 bits
    Scan type                   : Progressive
    Bits/(Pixel*Frame)          : 0.563
    Stream size                 : 22.4 GiB (87%)
    Title                       : REMUX HD1080p [CinemaniaHDD]
    Default                     : Yes
    Forced                      : Yes
    Color range                 : Limited
    Color primaries             : BT.709
    Transfer characteristics    : BT.709
    Matrix coefficients         : BT.709

    Audio #1
    ID                          : 2
    Format                      : AC-3
    Format/Info                 : Audio Coding 3
    Commercial name             : Dolby Digital
    Codec ID                    : A_AC3
    Duration                    : 1 h 54 min
    Bit rate mode               : Constant
    Bit rate                    : 256 kb/s
    Channel(s)                  : 2 channels
    Channel layout              : L R
    Sampling rate               : 48.0 kHz
    Frame rate                  : 31.250 FPS (1536 SPF)
    Compression mode            : Lossy
    Stream size                 : 210 MiB (1%)
    Title                       : Español Latino [CinemaniaHDD]
    Language                    : Spanish
    Service kind                : Complete Main
    Default                     : Yes
    Forced                      : Yes

    Audio #2
    ID                          : 3
    Format                      : DTS XLL
    Format/Info                 : Digital Theater Systems
    Commercial name             : DTS-HD Master Audio
    Codec ID                    : A_DTS
    Duration                    : 1 h 54 min
    Bit rate mode               : Variable
    Bit rate                    : 4 029 kb/s
    Channel(s)                  : 6 channels
    Channel layout              : C L R Ls Rs LFE
    Sampling rate               : 48.0 kHz
    Frame rate                  : 93.750 FPS (512 SPF)
    Bit depth                   : 24 bits
    Compression mode            : Lossless
    Stream size                 : 3.23 GiB (12%)
    Title                       : Ingles [CinemaniaHDD]
    Language                    : English
    Default                     : No
    Forced                      : No

    Text #1
    ID                          : 4
    Format                      : PGS
    Muxing mode                 : zlib
    Codec ID                    : S_HDMV/PGS
    Codec ID/Info               : Picture based subtitle format used on BDs/HD-DVDs
    Duration                    : 1 h 51 min
    Bit rate                    : 26.8 kb/s
    Count of elements           : 2618
    Stream size                 : 21.3 MiB (0%)
    Title                       : Español-PGS [CinemaniaHDD]
    Language                    : Spanish
    Default                     : No
    Forced                      : No

    Text #2
    ID                          : 5
    Format                      : PGS
    Muxing mode                 : zlib
    Codec ID                    : S_HDMV/PGS
    Codec ID/Info               : Picture based subtitle format used on BDs/HD-DVDs
    Duration                    : 1 h 45 min
    Bit rate                    : 34.6 kb/s
    Count of elements           : 2066
    Stream size                 : 26.1 MiB (0%)
    Title                       : Ingles-PGS [CinemaniaHDD]
    Language                    : English
    Default                     : No
    Forced                      : No

    Text #3
    ID                          : 6
    Format                      : UTF-8
    Codec ID                    : S_TEXT/UTF8
    Codec ID/Info               : UTF-8 Plain Text
    Duration                    : 4 s 870 ms
    Bit rate                    : 22 b/s
    Count of elements           : 1
    Stream size                 : 14.0 Bytes (0%)
    Title                       : Forzados-SRT [CinemaniaHDD]
    Language                    : Spanish
    Default                     : Yes
    Forced                      : Yes

    Text #4
    ID                          : 7
    Format                      : UTF-8
    Codec ID                    : S_TEXT/UTF8
    Codec ID/Info               : UTF-8 Plain Text
    Duration                    : 1 h 51 min
    Bit rate                    : 45 b/s
    Count of elements           : 1093
    Stream size                 : 36.9 KiB (0%)
    Title                       : Español-SRT [CinemaniaHDD]
    Language                    : Spanish
    Default                     : No
    Forced                      : No

    Menu
    00:00:00.000                : 00:00:00.000
    00:01:34.761                : 00:01:34.761
    00:05:29.329                : 00:05:29.329
    00:11:43.328                : 00:11:43.328
    00:16:02.545                : 00:16:02.545
    00:21:38.255                : 00:21:38.255
    00:27:19.555                : 00:27:19.555
    00:30:10.475                : 00:30:10.475
    00:33:31.885                : 00:33:31.885
    00:35:15.780                : 00:35:15.780
    00:38:05.325                : 00:38:05.325
    00:42:53.446                : 00:42:53.446
    00:48:38.666                : 00:48:38.666
    00:59:16.887                : 00:59:16.887
    01:02:44.052                : 01:02:44.052
    01:05:36.057                : 01:05:36.057
    01:10:10.706                : 01:10:10.706
    01:11:33.956                : 01:11:33.956
    01:15:21.684                : 01:15:21.684
    01:20:19.523                : 01:20:19.523
    01:24:43.787                : 01:24:43.787
    01:29:40.667                : 01:29:40.667
    01:34:01.177                : 01:34:01.177
    01:37:10.450                : 01:37:10.450
    01:40:40.618                : 01:40:40.618
    01:44:29.054                : 01:44:29.054
    01:46:14.910                : 01:46:14.910
    01:48:55.821                : 01:48:55.821

  • Peso: 25.9 GiB

Sinopsis

Descargar Los Soñadores (2003) REMUX 1080p Latino. París, 1968. Isabelle y su hermano Theo, solos en la ciudad mientras sus padres están de viaje, invitan a su apartamento a Matthew, un joven estudiante americano al que han conocido en un cine. Una vez en casa establecen unas reglas para conocerse mutuamente, explorando emociones y erotismo a través de una serie de juegos extremadamente arriesgados.

Resubido, Disponible Solo Para VIP!!!

Ficha técnica

Video trailer de la película

Enlaces de descarga

Rip de Bluray

Descargar Los Soñadores (2003) REMUX 1080p Latino




Aportes de DPeliculasHDmega la pass es:dpeliculashdmega.org Aportes de CinemaniaHD la pass es:cinemaniahdd.com
Guardado en : Drama , Remux , Romance

Películas relacionadas

  • Hombre de familia (2000) REMUX 1080p Latino

    Hombre de familia (2000) REMUX 1080p Latino

    2000
    Hombre de familia (2000) REMUX 1080p Latino

    2h 1m 2000

    Descargar Hombre de familia (2000) REMUX 1080p Latino. Jack Campbell es un egocéntrico broker de Wall...

    Director: Robert Schroer

    Género: Comedia

    Actores: Wass Stevens

  • Anon (2018) REMUX 1080p Latino

    Anon (2018) REMUX 1080p Latino

    2018
    Anon (2018) REMUX 1080p Latino

    1h 40m 2018

    Descargar Anon (2018) REMUX 1080p Latino. Anon nos lleva hasta un futuro no muy lejano al estilo soviético,...

    Director: Sarah Campbell

    Género: Ciencia ficción

    Actores: Zion Lee

  • Te Amo Brother (2009) REMUX 1080p Latino

    Te Amo Brother (2009) REMUX 1080p Latino

    2009
    Te Amo Brother (2009) REMUX 1080p Latino

    1h 45m 2009

    Descargar Te Amo Brother (2009) REMUX 1080p Latino. Peter Klaven (Paul Rudd) es un joven que vive muy...

    Director: Scott Robertson

    Género: Comedia

    Actores: Vicki Davis

descargar Los Soñadores (2003) REMUX 1080p Latino Full 1080p 1080p gratis, Los Soñadores (2003) REMUX 1080p Latino Full 1080p mega 1 link, Los Soñadores (2003) REMUX 1080p Latino Full 1080p pelicula completa, descargar Los Soñadores (2003) REMUX 1080p Latino Full 1080p gratis en mega.

Los Soñadores (2003) REMUX 1080p Latino pelicula full hd, Los Soñadores (2003) REMUX 1080p Latino mega latino, Los Soñadores (2003) REMUX 1080p Latino 4k latino, Los Soñadores (2003) REMUX 1080p Latino pelicula completa, Los Soñadores (2003) REMUX 1080p Latino descargar gratis, descargar Los Soñadores (2003) REMUX 1080p Latino pelicula latino, Los Soñadores (2003) REMUX 1080p Latino 1 link mega, Los Soñadores (2003) REMUX 1080p Latino 1 link google drive, Los Soñadores (2003) REMUX 1080p Latino hd 1080p latino.
Comentarios 0