The Doorman (2020) PLACEBO Full HD 1080p Latino

36 vistas
1 estrella2 estrellas3 estrellas4 estrellas5 estrellas (Ninguna valoración todavía)
Cargando...

Información de The Doorman (2020) PLACEBO Full HD 1080p Latino

Datos de la película

  • Calidad: Full 1080p
  • Audio: Se especifica abajo de la Sinopsis
  • Subtitulos: Español Latino PGS - Ingles PGS
  • Resolución: 1920x1080p
  • Formato: MKV
  • Codec: H.264
  • Encoder: Melkor
  • Mediainfo: Clic para Mostrar Datos Ver
  • The Doorman (2020) PLACEBO Full HD 1080p Latino.mkv
    Format                      : Matroska
    Format version              : Version 4
    File size                   : 5.23 GiB
    Duration                    : 1 h 37 min
    Overall bit rate            : 7 698 kb/s
    Movie name                  : The Doorman (2020) CinemaniaHDD.Net
    Encoded date                : UTC 2020-12-25 02:14:19
    Writing application         : mkvmerge v51.0.0 ('I Wish') 64-bit
    Writing library             : libebml v1.4.0 + libmatroska v1.6.2
    Attachments                 : CINEMANIAHD.png

    Video
    ID                          : 1
    Format                      : AVC
    Format/Info                 : Advanced Video Codec
    Format profile              : High@L4.1
    Format settings             : CABAC / 4 Ref Frames
    Format settings, CABAC      : Yes
    Format settings, Reference  : 4 frames
    Codec ID                    : V_MPEG4/ISO/AVC
    Duration                    : 1 h 37 min
    Bit rate                    : 5 901 kb/s
    Width                       : 1 920 pixels
    Height                      : 1 080 pixels
    Display aspect ratio        : 16:9
    Frame rate mode             : Constant
    Frame rate                  : 23.976 (24000/1001) FPS
    Color space                 : YUV
    Chroma subsampling          : 4:2:0
    Bit depth                   : 8 bits
    Scan type                   : Progressive
    Bits/(Pixel*Frame)          : 0.119
    Stream size                 : 4.01 GiB (77%)
    Title                       : Full HD1080p [CinemaniaHDD]
    Writing library             : x264 core 157 r2935 545de2f
    Encoding settings           : cabac=1 / ref=4 / deblock=1:0:0 / analyse=0x3:0x133 / me=tesa / subme=11 / psy=1 / psy_rd=1.00:0.00 / mixed_ref=1 / me_range=24 / chroma_me=1 / trellis=2 / 8x8dct=1 / cqm=0 / deadzone=21,11 / fast_pskip=0 / chroma_qp_offset=-2 / threads=24 / lookahead_threads=6 / sliced_threads=0 / nr=0 / decimate=1 / interlaced=0 / bluray_compat=0 / constrained_intra=0 / bframes=16 / b_pyramid=2 / b_adapt=2 / b_bias=0 / direct=3 / weightb=1 / open_gop=0 / weightp=2 / keyint=240 / keyint_min=24 / scenecut=40 / intra_refresh=0 / rc_lookahead=60 / rc=crf / mbtree=1 / crf=19.0 / qcomp=0.60 / qpmin=0 / qpmax=69 / qpstep=4 / vbv_maxrate=62500 / vbv_bufsize=78125 / crf_max=0.0 / nal_hrd=none / filler=0 / ip_ratio=1.40 / aq=1:1.00
    Default                     : Yes
    Forced                      : Yes
    Color range                 : Limited
    Color primaries             : BT.709
    Transfer characteristics    : BT.709
    Matrix coefficients         : BT.709

    Audio #1
    ID                          : 2
    Format                      : AC-3
    Format/Info                 : Audio Coding 3
    Commercial name             : Dolby Digital
    Codec ID                    : A_AC3
    Duration                    : 1 h 37 min
    Bit rate mode               : Constant
    Bit rate                    : 256 kb/s
    Channel(s)                  : 2 channels
    Channel layout              : L R
    Sampling rate               : 48.0 kHz
    Frame rate                  : 31.250 FPS (1536 SPF)
    Compression mode            : Lossy
    Delay relative to video     : 250 ms
    Stream size                 : 178 MiB (3%)
    Title                       : Español Latino [CinemaniaHDD]
    Language                    : Spanish
    Service kind                : Complete Main
    Default                     : Yes
    Forced                      : Yes

    Audio #2
    ID                          : 3
    Format                      : DTS
    Format/Info                 : Digital Theater Systems
    Codec ID                    : A_DTS
    Duration                    : 1 h 37 min
    Bit rate mode               : Constant
    Bit rate                    : 1 509 kb/s
    Channel(s)                  : 6 channels
    Channel layout              : C L R Ls Rs LFE
    Sampling rate               : 48.0 kHz
    Frame rate                  : 93.750 FPS (512 SPF)
    Bit depth                   : 24 bits
    Compression mode            : Lossy
    Stream size                 : 1.02 GiB (20%)
    Title                       : Ingles [CinemaniaHDD]
    Language                    : English
    Default                     : No
    Forced                      : No

    Text #1
    ID                          : 4
    ID in the original source m : 4611 (0x1203)
    Format                      : PGS
    Muxing mode                 : zlib
    Codec ID                    : S_HDMV/PGS
    Codec ID/Info               : Picture based subtitle format used on BDs/HD-DVDs
    Duration                    : 1 h 35 min
    Bit rate                    : 25.7 kb/s
    Count of elements           : 2168
    Stream size                 : 17.6 MiB (0%)
    Title                       : Español-PGS [CinemaniaHDD]
    Language                    : Spanish
    Default                     : No
    Forced                      : No
    Original source medium      : Blu-ray

    Text #2
    ID                          : 5
    ID in the original source m : 4608 (0x1200)
    Format                      : PGS
    Muxing mode                 : zlib
    Codec ID                    : S_HDMV/PGS
    Codec ID/Info               : Picture based subtitle format used on BDs/HD-DVDs
    Duration                    : 1 h 30 min
    Bit rate                    : 30.1 kb/s
    Count of elements           : 2154
    Stream size                 : 19.6 MiB (0%)
    Title                       : Ingles-PGS [CinemaniaHDD]
    Language                    : English
    Default                     : No
    Forced                      : No
    Original source medium      : Blu-ray

    Text #3
    ID                          : 6
    Format                      : UTF-8
    Codec ID                    : S_TEXT/UTF8
    Codec ID/Info               : UTF-8 Plain Text
    Duration                    : 1 h 35 min
    Bit rate                    : 0 b/s
    Count of elements           : 10
    Stream size                 : 276 Bytes (0%)
    Title                       : Forzados-SRT [CinemaniaHDD]
    Language                    : Spanish
    Default                     : Yes
    Forced                      : Yes

    Text #4
    ID                          : 7
    Format                      : UTF-8
    Codec ID                    : S_TEXT/UTF8
    Codec ID/Info               : UTF-8 Plain Text
    Duration                    : 1 h 35 min
    Bit rate                    : 42 b/s
    Count of elements           : 1084
    Stream size                 : 29.6 KiB (0%)
    Title                       : Español-SRT [CinemaniaHDD]
    Language                    : Spanish
    Default                     : No
    Forced                      : No

    Menu
    00:00:00.000                : en:Chapter 01
    00:06:31.641                : en:Chapter 02
    00:10:30.921                : en:Chapter 03
    00:17:32.968                : en:Chapter 04
    00:22:31.308                : en:Chapter 05
    00:27:07.751                : en:Chapter 06
    00:34:40.328                : en:Chapter 07
    00:42:34.301                : en:Chapter 08
    00:48:29.239                : en:Chapter 09
    00:55:32.245                : en:Chapter 10
    00:59:49.877                : en:Chapter 11
    01:05:47.693                : en:Chapter 12
    01:10:58.087                : en:Chapter 13
    01:16:56.486                : en:Chapter 14
    01:21:18.707                : en:Chapter 15
    01:29:21.522                : en:Chapter 16

  • Peso: 5.23 GiB

Sinopsis

Descargar The Doorman (2020) PLACEBO Full HD 1080p Latino. Un ex marine convertido en portero en un lujoso rascacielos de la ciudad de Nueva York debe ser más astuto y luchar contra un grupo de ladrones de arte y su despiadado líder, mientras lucha por proteger a la familia de su hermana. A medida que los ladrones se vuelven cada vez más desesperados y violentos, el portero recurre a sus habilidades de lucha letales para poner fin al enfrentamiento.

Español Latino AC3 2.0 – Ingles DTS 5.1

Ficha técnica

Video trailer de la película

Enlaces de descarga

Rip de Bluray

Descargar The Doorman (2020) PLACEBO Full HD 1080p Latino




Aportes de DPeliculasHDmega la pass es:dpeliculashdmega.org Aportes de CinemaniaHD la pass es:cinemaniahdd.com

Películas relacionadas

  • 2012 (2009) REMUX 1080p Latino – CMHDD

    2012 (2009) REMUX 1080p Latino – CMHDD

    2009
    2012 (2009) REMUX 1080p Latino – CMHDD

    0.0 2h 38m 2009

    El geólogo Adrian Helmsley, descubre de que el núcleo de la Tierra se está calentando. Teme que la...

    Director: Tommy Gormley

    Género: Acción

    Actores: Zlatko Burić

  • 2012 (2009) REMUX 4K HDR Latino – CMHDD

    2012 (2009) REMUX 4K HDR Latino – CMHDD

    2009
    2012 (2009) REMUX 4K HDR Latino – CMHDD

    0.0 2h 38m 2009

    El geólogo Adrian Helmsley, descubre de que el núcleo de la Tierra se está calentando. Teme que la...

    Director: Tommy Gormley

    Género: Acción

    Actores: Zlatko Burić

  • El día del fin del mundo (2020) HD 1080p Latino

    El día del fin del mundo (2020) HD 1080p Latino

    2020
    El día del fin del mundo (2020) HD 1080p Latino

    0.0 1h 59m 2020

    Descargar El día del fin del mundo (2020) HD 1080p Latino. Un matrimonio a punto de separarse debe tratar...

    Director: Ric Roman Waugh

    Género: Acción

    Actores: Tracey Bonner

  • El día del fin del mundo (2020) REMUX 1080p Latino

    El día del fin del mundo (2020) REMUX 1080p Latino

    2020
    El día del fin del mundo (2020) REMUX 1080p Latino

    5.0 1h 59m 2020

    Descargar El día del fin del mundo (2020) REMUX 1080p Latino. Un matrimonio a punto de separarse debe...

    Director: Ric Roman Waugh

    Género: Acción

    Actores: Tracey Bonner

Comentarios 0