×

¿Problemas para descargar con Mozilla, EDGE? Deshabilita la opción "Abrir vinculos en una pestaña nueva" tal como lo muestra ésta imagen.

The Devil’s Hour (2022) Primera Temporada AMZN WEB-DL 1080p Latino

40 vistas

Información de The Devil’s Hour (2022) Primera Temporada AMZN WEB-DL 1080p Latino

Datos de la película

  • Calidad: 1080p
  • Audio: Español Latino AC3 5.1 WEB-DL - Ingles AC3 5.1 WEB-DL
  • Subtitulos: Español Latino SRT- FORZADOS SRT
  • Resolución: 1920x1080
  • Formato: MKV
  • Codec: H.264
  • Encoder: cinemaniahdd
  • Mediainfo: Clic para Mostrar Datos Ver
  • The Devils Hour T01E01 AMZN WEB-DL 1080p Latino [CNMNHDD].mkv
    Format                      : Matroska
    Format version              : Version 4
    File size                   : 3.89 GiB
    Duration                    : 59 min 22 s
    Overall bit rate            : 9 386 kb/s
    Movie name                  : The Devils Hour S01E01 - 3.33 [1080p] - CinemaniaHDD.Net
    Encoded date                : UTC 2022-10-28 01:38:30
    Writing application         : mkvmerge v56.1.0 ('My Friend') 64-bit
    Writing library             : libebml v1.4.2 + libmatroska v1.6.4

    Video
    ID                          : 1
    Format                      : AVC
    Format/Info                 : Advanced Video Codec
    Format profile              : High@L4
    Format settings             : CABAC / 4 Ref Frames
    Format settings, CABAC      : Yes
    Format settings, Reference  : 4 frames
    Codec ID                    : V_MPEG4/ISO/AVC
    Duration                    : 59 min 22 s
    Bit rate mode               : Constant
    Bit rate                    : 7 463 kb/s
    Nominal bit rate            : 10 000 kb/s
    Width                       : 1 920 pixels
    Height                      : 1 080 pixels
    Display aspect ratio        : 16:9
    Frame rate mode             : Constant
    Frame rate                  : 25.000 FPS
    Color space                 : YUV
    Chroma subsampling          : 4:2:0
    Bit depth                   : 8 bits
    Scan type                   : Progressive
    Bits/(Pixel*Frame)          : 0.144
    Stream size                 : 3.10 GiB (80%)
    Title                       : CinemaniaHDD
    Default                     : Yes
    Forced                      : No
    Color range                 : Limited
    Color primaries             : BT.709
    Transfer characteristics    : BT.709
    Matrix coefficients         : BT.709

    Audio #1
    ID                          : 2
    Format                      : AC-3
    Format/Info                 : Audio Coding 3
    Commercial name             : Dolby Digital
    Codec ID                    : A_AC3
    Duration                    : 59 min 22 s
    Bit rate mode               : Constant
    Bit rate                    : 640 kb/s
    Channel(s)                  : 6 channels
    Channel layout              : L R C LFE Ls Rs
    Sampling rate               : 48.0 kHz
    Frame rate                  : 31.250 FPS (1536 SPF)
    Compression mode            : Lossy
    Stream size                 : 272 MiB (7%)
    Title                       : Español latino [CinemaniaHDD]
    Language                    : Spanish
    Service kind                : Complete Main
    Default                     : Yes
    Forced                      : No

    Audio #2
    ID                          : 3
    Format                      : E-AC-3
    Format/Info                 : Enhanced AC-3
    Commercial name             : Dolby Digital Plus
    Codec ID                    : A_EAC3
    Duration                    : 59 min 22 s
    Bit rate mode               : Constant
    Bit rate                    : 640 kb/s
    Channel(s)                  : 6 channels
    Channel layout              : L R C LFE Ls Rs
    Sampling rate               : 48.0 kHz
    Frame rate                  : 31.250 FPS (1536 SPF)
    Compression mode            : Lossy
    Stream size                 : 272 MiB (7%)
    Title                       : Español latino / E-AC3 [CinemaniaHDD]
    Language                    : Spanish
    Service kind                : Complete Main
    Default                     : No
    Forced                      : No

    Audio #3
    ID                          : 4
    Format                      : E-AC-3
    Format/Info                 : Enhanced AC-3
    Commercial name             : Dolby Digital Plus
    Codec ID                    : A_EAC3
    Duration                    : 59 min 22 s
    Bit rate mode               : Constant
    Bit rate                    : 640 kb/s
    Channel(s)                  : 6 channels
    Channel layout              : L R C LFE Ls Rs
    Sampling rate               : 48.0 kHz
    Frame rate                  : 31.250 FPS (1536 SPF)
    Compression mode            : Lossy
    Stream size                 : 272 MiB (7%)
    Title                       : Inglés [CinemaniaHDD]
    Language                    : English
    Service kind                : Complete Main
    Default                     : No
    Forced                      : No

    Text #1
    ID                          : 5
    Format                      : UTF-8
    Codec ID                    : S_TEXT/UTF8
    Codec ID/Info               : UTF-8 Plain Text
    Duration                    : 57 min 25 s
    Bit rate                    : 1 b/s
    Count of elements           : 11
    Stream size                 : 449 Bytes (0%)
    Title                       : Forzados [CinemaniaHDD]
    Language                    : Spanish
    Default                     : Yes
    Forced                      : Yes

    Text #2
    ID                          : 6
    Format                      : UTF-8
    Codec ID                    : S_TEXT/UTF8
    Codec ID/Info               : UTF-8 Plain Text
    Duration                    : 58 min 21 s
    Bit rate                    : 43 b/s
    Count of elements           : 680
    Stream size                 : 18.7 KiB (0%)
    Title                       : Español latino [CinemaniaHDD]
    Language                    : Spanish
    Default                     : No
    Forced                      : No

    Text #3
    ID                          : 7
    Format                      : UTF-8
    Codec ID                    : S_TEXT/UTF8
    Codec ID/Info               : UTF-8 Plain Text
    Duration                    : 57 min 25 s
    Bit rate                    : 54 b/s
    Count of elements           : 856
    Stream size                 : 22.9 KiB (0%)
    Title                       : Inglés [CinemaniaHDD]
    Language                    : English
    Default                     : No
    Forced                      : No

     

  • Peso: 3.89 GiB Aprox ---- 24 GiB in 6 Chapters.

Sinopsis

Peter Capaldi y Jessica Raine protagonizan este atrapante thriller psicológico de sed partes. Lucy despierta todas las noches a las 3:33 a. m. en punto. Hace mucho que su vida no tiene sentido, pero las respuestas están an algún lugar, al final de una seguidilla de asesinatos brutales.

Ficha técnica

Video trailer de la película

Enlaces de descarga

Rip de Bluray

Descargar The Devil’s Hour (2022) Primera Temporada AMZN WEB-DL 1080p Latino




Aportes de DPeliculasHDmega la pass es:dpeliculashdmega.org Aportes de CinemaniaHD la pass es:cinemaniahdd.com
Guardado en : Drama , Misterio , Series

Películas relacionadas

descargar The Devil’s Hour (2022) Primera Temporada AMZN WEB-DL 1080p Latino 1080p 1080p gratis, The Devil’s Hour (2022) Primera Temporada AMZN WEB-DL 1080p Latino 1080p mega 1 link, The Devil’s Hour (2022) Primera Temporada AMZN WEB-DL 1080p Latino 1080p serie completa, descargar The Devil’s Hour (2022) Primera Temporada AMZN WEB-DL 1080p Latino 1080p gratis en mega.

The Devil’s Hour (2022) Primera Temporada AMZN WEB-DL 1080p Latino pelicula full hd, The Devil’s Hour (2022) Primera Temporada AMZN WEB-DL 1080p Latino mega latino, The Devil’s Hour (2022) Primera Temporada AMZN WEB-DL 1080p Latino 4k latino, The Devil’s Hour (2022) Primera Temporada AMZN WEB-DL 1080p Latino pelicula completa, The Devil’s Hour (2022) Primera Temporada AMZN WEB-DL 1080p Latino descargar gratis, descargar The Devil’s Hour (2022) Primera Temporada AMZN WEB-DL 1080p Latino pelicula latino, The Devil’s Hour (2022) Primera Temporada AMZN WEB-DL 1080p Latino 1 link mega, The Devil’s Hour (2022) Primera Temporada AMZN WEB-DL 1080p Latino 1 link google drive, The Devil’s Hour (2022) Primera Temporada AMZN WEB-DL 1080p Latino hd 1080p latino.
Comentarios 0