×

¿Problemas para descargar con Mozilla, EDGE? Deshabilita la opción "Abrir vinculos en una pestaña nueva" tal como lo muestra ésta imagen.

The Devil Wears Prada (2006) WEB-DL 4K HDR Latino – CMHDD

89 vistas

Información de The Devil Wears Prada (2006) WEB-DL 4K HDR Latino – CMHDD

Datos de la película

  • Calidad:
  • Audio: Español Latino AC3 2.0 WEB-DL - Ingles DTS 5.1 BLURAY
  • Subtitulos: Español Latino SRT- FORZADOS SRT
  • Resolución: 3840x1600p
  • Formato: MKV
  • Codec: H.264
  • Encoder: Dracarys
  • Mediainfo: Clic para Mostrar Datos Ver
  • Format                      : Matroska
    Format version              : Version 4
    File size                   : 15.9 GiB
    Duration                    : 1 h 49 min
    Overall bit rate mode       : Variable
    Overall bit rate            : 20.8 Mb/s
    Movie name                  : The Devil Wears Prada (2006) WEB-DL 4K HDR Latino - CMHDD
    Encoded date                : UTC 2023-12-18 22:30:24
    Writing application         : mkvmerge v47.0.0 ('Black Flag') 64-bit
    Writing library             : libebml v1.3.10 + libmatroska v1.5.2

    Video
    ID                          : 1
    Format                      : HEVC
    Format/Info                 : High Efficiency Video Coding
    Format profile              : Main 10@L5@High
    HDR format                  : SMPTE ST 2086, HDR10 compatible
    Codec ID                    : V_MPEGH/ISO/HEVC
    Duration                    : 1 h 49 min
    Bit rate                    : 16.4 Mb/s
    Width                       : 3 840 pixels
    Height                      : 2 160 pixels
    Display aspect ratio        : 16:9
    Frame rate mode             : Constant
    Frame rate                  : 23.976 (24000/1001) FPS
    Color space                 : YUV
    Chroma subsampling          : 4:2:0
    Bit depth                   : 10 bits
    Bits/(Pixel*Frame)          : 0.082
    Stream size                 : 12.5 GiB (79%)
    Default                     : Yes
    Forced                      : No
    Color range                 : Limited
    Color primaries             : BT.2020
    Transfer characteristics    : PQ
    Matrix coefficients         : BT.2020 non-constant
    Mastering display color pri : Display P3
    Mastering display luminance : min: 0.0050 cd/m2, max: 1000 cd/m2

    Audio #1
    ID                          : 2
    Format                      : E-AC-3
    Format/Info                 : Enhanced AC-3
    Commercial name             : Dolby Digital Plus
    Codec ID                    : A_EAC3
    Duration                    : 1 h 49 min
    Bit rate mode               : Constant
    Bit rate                    : 256 kb/s
    Channel(s)                  : 6 channels
    Channel layout              : L R C LFE Ls Rs
    Sampling rate               : 48.0 kHz
    Frame rate                  : 31.250 FPS (1536 SPF)
    Compression mode            : Lossy
    Stream size                 : 200 MiB (1%)
    Language                    : Spanish
    Service kind                : Complete Main
    Default                     : Yes
    Forced                      : No

    Audio #2
    ID                          : 3
    Format                      : DTS XLL
    Format/Info                 : Digital Theater Systems
    Commercial name             : DTS-HD Master Audio
    Codec ID                    : A_DTS
    Duration                    : 1 h 49 min
    Bit rate mode               : Variable
    Bit rate                    : 3 947 kb/s
    Channel(s)                  : 6 channels
    Channel layout              : C L R Ls Rs LFE
    Sampling rate               : 48.0 kHz
    Frame rate                  : 93.750 FPS (512 SPF)
    Bit depth                   : 24 bits
    Compression mode            : Lossless
    Delay relative to video     : 3 ms
    Stream size                 : 3.02 GiB (19%)
    Language                    : English
    Default                     : No
    Forced                      : No

    Audio #3
    ID                          : 4
    Format                      : E-AC-3
    Format/Info                 : Enhanced AC-3
    Commercial name             : Dolby Digital Plus
    Codec ID                    : A_EAC3
    Duration                    : 1 h 49 min
    Bit rate mode               : Constant
    Bit rate                    : 256 kb/s
    Channel(s)                  : 6 channels
    Channel layout              : L R C LFE Ls Rs
    Sampling rate               : 48.0 kHz
    Frame rate                  : 31.250 FPS (1536 SPF)
    Compression mode            : Lossy
    Stream size                 : 200 MiB (1%)
    Language                    : English
    Service kind                : Complete Main
    Default                     : No
    Forced                      : No

    Text #1
    ID                          : 5
    Format                      : UTF-8
    Codec ID                    : S_TEXT/UTF8
    Codec ID/Info               : UTF-8 Plain Text
    Duration                    : 1 h 47 min
    Bit rate                    : 0 b/s
    Frame rate                  : 0.001 FPS
    Count of elements           : 8
    Stream size                 : 200 Bytes (0%)
    Title                       : Forzados
    Language                    : Spanish
    Default                     : Yes
    Forced                      : Yes

    Text #2
    ID                          : 6
    Format                      : UTF-8
    Codec ID                    : S_TEXT/UTF8
    Codec ID/Info               : UTF-8 Plain Text
    Duration                    : 1 h 44 min
    Bit rate                    : 63 b/s
    Frame rate                  : 0.222 FPS
    Count of elements           : 1386
    Stream size                 : 48.8 KiB (0%)
    Language                    : Spanish
    Default                     : No
    Forced                      : No

    Menu
    00:00:00.000                : en:Main Titles (Suddenly I See)
    00:03:27.707                : en:Appointment with Emily
    00:04:37.194                : en:The Dragon Lady
    00:10:00.558                : en:Hired
    00:11:50.335                : en:The Early Bird
    00:14:55.812                : en:I'm Not Emily
    00:18:05.626                : en:Errand Girl
    00:19:45.976                : en:The Lunch Line
    00:21:49.725                : en:From a Pile of Stuff
    00:24:29.426                : en:Sticking It Out
    00:27:21.431                : en:Dinner and Disaster
    00:30:20.193                : en:Poor You
    00:34:43.790                : en:The New Andy
    00:38:11.080                : en:Exciting Presents
    00:40:19.792                : en:Pickup for Miranda
    00:43:28.439                : en:The Preview
    00:45:12.585                : en:Delivering the Book
    00:48:22.775                : en:The Impossible Manuscript
    00:54:20.466                : en:Hanging By a Thread
    00:57:19.978                : en:An Incubus of Viral Plague
    01:00:52.524                : en:The Benefit
    01:06:46.711                : en:Miranda's Choice
    01:09:50.061                : en:Telling Emily
    01:12:54.579                : en:One of Them
    01:17:34.483                : en:Paris
    01:20:04.008                : en:Another Divorce
    01:23:33.300                : en:The Dream Job
    01:26:07.245                : en:Dinner with Christian
    01:28:29.930                : en:The New Runway
    01:31:40.412                : en:The Bit Announcement
    01:35:25.178                : en:To Be Us
    01:39:27.879                : en:Sorry
    01:41:32.878                : en:The Job Interview
    01:42:39.236                : en:Andy's Imposition
    01:43:55.396                : en:A Secret Smile
    01:45:20.314                : en:End Titles

     

  • Peso: 15.9 GiB

Sinopsis

En el vertiginoso mundo de la moda en Nueva York, la revista ‘Runway’ es el Santo Grial. Dirigida con puño de hierro y elegante manicura por Miranda Priestly, trabajar en ella es un temible reto para todo aquel que quiera triunfar en ese mundo. Hacerlo como ayudante de Miranda podría abrirle cualquier puerta a Andy Sachs, recientemente graduada. Pero ella es una chica que destaca por su desaliño dentro del pequeño ejército de guapísimas redactoras de la revista. Andy comprende muy pronto que para triunfar en ese negocio va a necesitar algo más que iniciativa y determinación. Y la prueba definitiva está delante de ella, vestida de Prada de pies a cabeza.

Ficha técnica

Video trailer de la película

Enlaces de descarga

Rip de Bluray

Descargar The Devil Wears Prada (2006) WEB-DL 4K HDR Latino – CMHDD




Aportes de DPeliculasHDmega la pass es:dpeliculashdmega.org Aportes de CinemaniaHD la pass es:cinemaniahdd.com Aportes recientes:cinemaniahdd.net
Guardado en : Comedia , Drama , Romance

Películas relacionadas

descargar The Devil Wears Prada (2006) WEB-DL 4K HDR Latino – CMHDD 1080p gratis, The Devil Wears Prada (2006) WEB-DL 4K HDR Latino – CMHDD mega 1 link, The Devil Wears Prada (2006) WEB-DL 4K HDR Latino – CMHDD pelicula completa, descargar The Devil Wears Prada (2006) WEB-DL 4K HDR Latino – CMHDD gratis en mega.

The Devil Wears Prada (2006) WEB-DL 4K HDR Latino – CMHDD pelicula full hd, The Devil Wears Prada (2006) WEB-DL 4K HDR Latino – CMHDD mega latino, The Devil Wears Prada (2006) WEB-DL 4K HDR Latino – CMHDD 4k latino, The Devil Wears Prada (2006) WEB-DL 4K HDR Latino – CMHDD pelicula completa, The Devil Wears Prada (2006) WEB-DL 4K HDR Latino – CMHDD descargar gratis, descargar The Devil Wears Prada (2006) WEB-DL 4K HDR Latino – CMHDD pelicula latino, The Devil Wears Prada (2006) WEB-DL 4K HDR Latino – CMHDD 1 link mega, The Devil Wears Prada (2006) WEB-DL 4K HDR Latino – CMHDD 1 link google drive, The Devil Wears Prada (2006) WEB-DL 4K HDR Latino – CMHDD hd 1080p latino.
Comentarios 0