×

¿Problemas para descargar con Mozilla, EDGE? Deshabilita la opción "Abrir vinculos en una pestaña nueva" tal como lo muestra ésta imagen.

The Devil Wears Prada (2006) [Open Matte] WEB-DL 1080p Latino

320 vistas

Información de The Devil Wears Prada (2006) [Open Matte] WEB-DL 1080p Latino

Datos de la película

  • Calidad: 1080p
  • Audio: Español Latino AC3 5.1 WEB-DL - Ingles AC3 5.1 WEB-DL
  • Subtitulos: Español Latino SRT- FORZADOS SRT
  • Resolución: 1920x1080
  • Formato: MKV
  • Codec: H.264
  • Encoder: cinemaniahdd
  • Mediainfo: Clic para Mostrar Datos Ver
  • The Devil Wears Prada (2006) [OpenMatte] WEB-DL 1080p Latino [CNMNHDD].mkv Format                      : Matroska Format version              : Version 4 File size                   : 11.5 GiB Duration                    : 1 h 49 min Overall bit rate            : 15.0 Mb/s Movie name                  : El diablo viste a la Moda (2006) - OpenMatte [1080p] - CinemaniaHDD.Net Encoded date                : UTC 2023-01-29 01:54:21 Writing application         : mkvmerge v56.1.0 ('My Friend') 64-bit Writing library             : libebml v1.4.2 + libmatroska v1.6.4 Video ID                          : 1 Format                      : AVC Format/Info                 : Advanced Video Codec Format profile              : High@L4 Format settings             : CABAC / 4 Ref Frames Format settings, CABAC      : Yes Format settings, Reference  : 4 frames Codec ID                    : V_MPEG4/ISO/AVC Duration                    : 1 h 49 min Bit rate                    : 13.7 Mb/s Width                       : 1 920 pixels Height                      : 1 080 pixels Display aspect ratio        : 16:9 Frame rate mode             : Constant Frame rate                  : 23.976 (24000/1001) FPS Color space                 : YUV Chroma subsampling          : 4:2:0 Bit depth                   : 8 bits Scan type                   : Progressive Bits/(Pixel*Frame)          : 0.276 Stream size                 : 10.5 GiB (91%) Title                       : CinemaniaHDD Language                    : English Default                     : Yes Forced                      : No Color range                 : Limited Color primaries             : BT.709 Transfer characteristics    : BT.709 Matrix coefficients         : BT.709 Audio #1 ID                          : 2 Format                      : AC-3 Format/Info                 : Audio Coding 3 Commercial name             : Dolby Digital Codec ID                    : A_AC3 Duration                    : 1 h 49 min Bit rate mode               : Constant Bit rate                    : 384 kb/s Channel(s)                  : 6 channels Channel layout              : L R C LFE Ls Rs Sampling rate               : 48.0 kHz Frame rate                  : 31.250 FPS (1536 SPF) Compression mode            : Lossy Delay relative to video     : 124 ms Stream size                 : 300 MiB (3%) Title                       : Español latino [CinemaniaHDD] Language                    : Spanish Service kind                : Complete Main Default                     : Yes Forced                      : No Audio #2 ID                          : 3 Format                      : E-AC-3 Format/Info                 : Enhanced AC-3 Commercial name             : Dolby Digital Plus Codec ID                    : A_EAC3 Duration                    : 1 h 49 min Bit rate mode               : Constant Bit rate                    : 256 kb/s Channel(s)                  : 6 channels Channel layout              : L R C LFE Ls Rs Sampling rate               : 48.0 kHz Frame rate                  : 31.250 FPS (1536 SPF) Compression mode            : Lossy Delay relative to video     : 124 ms Stream size                 : 200 MiB (2%) Title                       : Español latino / E-AC3 [CinemaniaHDD] Language                    : Spanish Service kind                : Complete Main Default                     : No Forced                      : No Audio #3 ID                          : 4 Format                      : E-AC-3 Format/Info                 : Enhanced AC-3 Commercial name             : Dolby Digital Plus Codec ID                    : A_EAC3 Duration                    : 1 h 49 min Bit rate mode               : Constant Bit rate                    : 640 kb/s Channel(s)                  : 6 channels Channel layout              : L R C LFE Ls Rs Sampling rate               : 48.0 kHz Frame rate                  : 31.250 FPS (1536 SPF) Compression mode            : Lossy Delay relative to video     : 7 ms Stream size                 : 501 MiB (4%) Title                       : Inglés [CinemaniaHDD] Language                    : English Service kind                : Complete Main Default                     : No Forced                      : No Text #1 ID                          : 5 Format                      : UTF-8 Codec ID                    : S_TEXT/UTF8 Codec ID/Info               : UTF-8 Plain Text Duration                    : 1 h 47 min Bit rate                    : 0 b/s Count of elements           : 7 Stream size                 : 181 Bytes (0%) Title                       : Forzados [CinemaniaHDD] Language                    : Spanish Default                     : Yes Forced                      : Yes Text #2 ID                          : 6 Format                      : UTF-8 Codec ID                    : S_TEXT/UTF8 Codec ID/Info               : UTF-8 Plain Text Duration                    : 1 h 44 min Bit rate                    : 63 b/s Count of elements           : 1385 Stream size                 : 48.8 KiB (0%) Title                       : Español latino [CinemaniaHDD] Language                    : Spanish Default                     : No Forced                      : No Text #3 ID                          : 7 Format                      : UTF-8 Codec ID                    : S_TEXT/UTF8 Codec ID/Info               : UTF-8 Plain Text Duration                    : 1 h 48 min Bit rate                    : 81 b/s Count of elements           : 1667 Stream size                 : 65.0 KiB (0%) Title                       : Inglés [CinemaniaHDD] Language                    : English Default                     : No Forced                      : No    
  • Peso: 11.5 GiB

Sinopsis

En el vertiginoso mundo de la moda en Nueva York, la revista ‘Runway’ es el Santo Grial. Dirigida con puño de hierro y elegante manicura por Miranda Priestly, trabajar en ella es un temible reto para todo aquel que quiera triunfar en ese mundo. Hacerlo como ayudante de Miranda podría abrirle cualquier puerta a Andy Sachs, recientemente graduada. Pero ella es una chica que destaca por su desaliño dentro del pequeño ejército de guapísimas redactoras de la revista. Andy comprende muy pronto que para triunfar en ese negocio va a necesitar algo más que iniciativa y determinación. Y la prueba definitiva está delante de ella, vestida de Prada de pies a cabeza.

Ficha técnica

Video trailer de la película

Enlaces de descarga

Rip de Bluray

Descargar The Devil Wears Prada (2006) [Open Matte] WEB-DL 1080p Latino




Aportes de DPeliculasHDmega la pass es:dpeliculashdmega.org Aportes de CinemaniaHD la pass es:cinemaniahdd.com Aportes recientes:cinemaniahdd.net
Guardado en : Comedia , Drama , OPEN MATTE , Romance

Películas relacionadas

descargar The Devil Wears Prada (2006) [Open Matte] WEB-DL 1080p Latino 1080p 1080p gratis, The Devil Wears Prada (2006) [Open Matte] WEB-DL 1080p Latino 1080p mega 1 link, The Devil Wears Prada (2006) [Open Matte] WEB-DL 1080p Latino 1080p pelicula completa, descargar The Devil Wears Prada (2006) [Open Matte] WEB-DL 1080p Latino 1080p gratis en mega.

The Devil Wears Prada (2006) [Open Matte] WEB-DL 1080p Latino pelicula full hd, The Devil Wears Prada (2006) [Open Matte] WEB-DL 1080p Latino mega latino, The Devil Wears Prada (2006) [Open Matte] WEB-DL 1080p Latino 4k latino, The Devil Wears Prada (2006) [Open Matte] WEB-DL 1080p Latino pelicula completa, The Devil Wears Prada (2006) [Open Matte] WEB-DL 1080p Latino descargar gratis, descargar The Devil Wears Prada (2006) [Open Matte] WEB-DL 1080p Latino pelicula latino, The Devil Wears Prada (2006) [Open Matte] WEB-DL 1080p Latino 1 link mega, The Devil Wears Prada (2006) [Open Matte] WEB-DL 1080p Latino 1 link google drive, The Devil Wears Prada (2006) [Open Matte] WEB-DL 1080p Latino hd 1080p latino.
Comentarios 0