×

¿Problemas para descargar con Mozilla, EDGE? Deshabilita la opción "Abrir vinculos en una pestaña nueva" tal como lo muestra ésta imagen.

The Deuce (2019) Temporada 3 AMZN WEB-DL 1080p Latino

2.666 vistas

Información de The Deuce (2019) Temporada 3 AMZN WEB-DL 1080p Latino

249SER 03 03 00WVtyERTICAL

Datos de la película

  • Calidad: WEBDL
  • Audio: Español Latino AC3 2.0 - Ingles AC3 5.1 HBO
  • Subtitulos: Ingles SRT
  • Resolución: 1920x1080
  • Formato: MKV
  • Codec: H.264
  • Encoder: cinemaniahdd
  • Mediainfo: Clic para Mostrar Datos Ver
  • The Deuce S03E01 AMZN WEB-DL 1080p Latino.mkv
    Format                      : Matroska
    Format version              : Version 4
    File size                   : 4.35 GiB
    Duration                    : 59 min 2 s
    Overall bit rate            : 10.6 Mb/s
    Movie name                  : The Deuce S03E01 - CinemaniaHDD.Net
    Encoded date                : UTC 2019-09-12 16:45:35
    Writing application         : mkvmerge v35.0.0 ('All The Love In The World') 64-bit
    Writing library             : libebml v1.3.9 + libmatroska v1.5.2

    Video
    ID                          : 1
    Format                      : AVC
    Format/Info                 : Advanced Video Codec
    Format profile              : High@L4
    Format settings             : CABAC / 4 Ref Frames
    Format settings, CABAC      : Yes
    Format settings, ReFrames   : 4 frames
    Codec ID                    : V_MPEG4/ISO/AVC
    Duration                    : 59 min 2 s
    Bit rate mode               : Constant
    Bit rate                    : 10 000 kb/s
    Width                       : 1 920 pixels
    Height                      : 1 080 pixels
    Display aspect ratio        : 16:9
    Frame rate mode             : Constant
    Frame rate                  : 23.976 (24000/1001) FPS
    Color space                 : YUV
    Chroma subsampling          : 4:2:0
    Bit depth                   : 8 bits
    Scan type                   : Progressive
    Bits/(Pixel*Frame)          : 0.201
    Stream size                 : 3.98 GiB (91%)
    Title                       : CinemaniaHDD
    Default                     : Yes
    Forced                      : No
    Color range                 : Limited
    Color primaries             : BT.709
    Transfer characteristics    : BT.709
    Matrix coefficients         : BT.709

    Audio #1
    ID                          : 2
    Format                      : AC-3
    Format/Info                 : Audio Coding 3
    Commercial name             : Dolby Digital
    Codec ID                    : A_AC3
    Duration                    : 59 min 2 s
    Bit rate mode               : Constant
    Bit rate                    : 256 kb/s
    Channel(s)                  : 2 channels
    Channel layout              : L R
    Sampling rate               : 48.0 kHz
    Frame rate                  : 31.250 FPS (1536 SPF)
    Bit depth                   : 16 bits
    Compression mode            : Lossy
    Delay relative to video     : -26 ms
    Stream size                 : 108 MiB (2%)
    Title                       : Español latino [CinemaniaHDD]
    Language                    : Spanish
    Service kind                : Complete Main
    Default                     : Yes
    Forced                      : No

    Audio #2
    ID                          : 3
    Format                      : E-AC-3
    Format/Info                 : Enhanced AC-3
    Commercial name             : Dolby Digital Plus
    Codec ID                    : A_EAC3
    Duration                    : 59 min 2 s
    Bit rate mode               : Constant
    Bit rate                    : 640 kb/s
    Channel(s)                  : 6 channels
    Channel layout              : L R C LFE Ls Rs
    Sampling rate               : 48.0 kHz
    Frame rate                  : 31.250 FPS (1536 SPF)
    Compression mode            : Lossy
    Delay relative to video     : -16 ms
    Stream size                 : 270 MiB (6%)
    Title                       : Inglés [CinemaniaHDD]
    Language                    : English
    Service kind                : Complete Main
    Default                     : No
    Forced                      : No

    Text #1
    ID                          : 4
    Format                      : UTF-8
    Codec ID                    : S_TEXT/UTF8
    Codec ID/Info               : UTF-8 Plain Text
    Duration                    : 8 min 24 s
    Bit rate                    : 1 b/s
    Count of elements           : 4
    Stream size                 : 76.0 Bytes (0%)
    Title                       : Forzados [CinemaniaHDD]
    Language                    : Spanish
    Default                     : Yes
    Forced                      : Yes

    Text #2
    ID                          : 5
    Format                      : UTF-8
    Codec ID                    : S_TEXT/UTF8
    Codec ID/Info               : UTF-8 Plain Text
    Duration                    : 56 min 54 s
    Bit rate                    : 59 b/s
    Count of elements           : 833
    Stream size                 : 24.9 KiB (0%)
    Title                       : Español latino [CinemaniaHDD]
    Language                    : Spanish
    Default                     : No
    Forced                      : No

     

  • Peso: 4.35 GiB C/U ---- 8 CAPITULO AGREGADO

Sinopsis

Estreno de temporada. Vincent se reconecta con su ex esposa mientras su relación con Abby se marchita. Candy y Harvey encaran el futuro del porno. Alston hace un pedido específico.

FINAL DE LA SERIE

8 CAPITULO AGREGADO

Ficha técnica

Video trailer de la película

Enlaces de descarga

Rip de Bluray

Descargar The Deuce (2019) Temporada 3 AMZN WEB-DL 1080p Latino




Aportes de DPeliculasHDmega la pass es:dpeliculashdmega.org Aportes de CinemaniaHD la pass es:cinemaniahdd.com
Guardado en : Drama , HBO , Series

Películas relacionadas

  • El discurso del Rey (2010) 1080p Latino

    El discurso del Rey (2010) 1080p Latino

    2010
    El discurso del Rey (2010) 1080p Latino

    1h 58m 2010

    Descargar El discurso del Rey (2010) 1080p Latino. El duque de York se convirtió en rey de Gran Bretaña...

    Director: Tom Hooper

    Género: Drama

    Actores: Tony Earnshaw

  • El discurso del Rey (2010) Full HD 1080p Latino

    El discurso del Rey (2010) Full HD 1080p Latino

    2010
    El discurso del Rey (2010) Full HD 1080p Latino

    1h 58m 2010

    Descargar El discurso del Rey (2010) Full HD 1080p Latino. El duque de York se convirtió en rey de Gran...

    Director: Tom Hooper

    Género: Drama

    Actores: Tony Earnshaw

  • El discurso del Rey (2010) REMUX 1080p Latino

    El discurso del Rey (2010) REMUX 1080p Latino

    2010
    El discurso del Rey (2010) REMUX 1080p Latino

    1h 58m 2010

    Descargar El discurso del Rey (2010) REMUX 1080p Latino. El duque de York se convirtió en rey de Gran...

    Director: Tom Hooper

    Género: Drama

    Actores: Tony Earnshaw

  • 8 Mile (2002) REMUX 4K HDR Latino – CMHDD

    8 Mile (2002) REMUX 4K HDR Latino – CMHDD

    2002
    8 Mile (2002) REMUX 4K HDR Latino – CMHDD

    1h 50m 2002

    Detroit, 1995. La promesa de potencia industrial se ha transformado en un hervidero de conflictos económicos...

    Director: Michael J. Moore

    Género: Drama

    Actores: Xzibit

descargar The Deuce (2019) Temporada 3 AMZN WEB-DL 1080p Latino WEBDL 1080p gratis, The Deuce (2019) Temporada 3 AMZN WEB-DL 1080p Latino WEBDL mega 1 link, The Deuce (2019) Temporada 3 AMZN WEB-DL 1080p Latino WEBDL serie completa, descargar The Deuce (2019) Temporada 3 AMZN WEB-DL 1080p Latino WEBDL gratis en mega.

The Deuce (2019) Temporada 3 AMZN WEB-DL 1080p Latino pelicula full hd, The Deuce (2019) Temporada 3 AMZN WEB-DL 1080p Latino mega latino, The Deuce (2019) Temporada 3 AMZN WEB-DL 1080p Latino 4k latino, The Deuce (2019) Temporada 3 AMZN WEB-DL 1080p Latino pelicula completa, The Deuce (2019) Temporada 3 AMZN WEB-DL 1080p Latino descargar gratis, descargar The Deuce (2019) Temporada 3 AMZN WEB-DL 1080p Latino pelicula latino, The Deuce (2019) Temporada 3 AMZN WEB-DL 1080p Latino 1 link mega, The Deuce (2019) Temporada 3 AMZN WEB-DL 1080p Latino 1 link google drive, The Deuce (2019) Temporada 3 AMZN WEB-DL 1080p Latino hd 1080p latino.
Comentarios 4
  • cranck_247 - 26 septiembre, 2019

    Gracias ´por el capitulo 3, son la mejor pagina

  • cranck_247 - 17 septiembre, 2019

    GRACIAS POR COMPARTIR, ESPERANDO EL RESTO DE CAPITULOS

  • tricky - 17 septiembre, 2019

    Hola, Podrían subir por favor las temporadas 1 y 2? Desde ya muchas gracias.

  • cranck_247 - 12 septiembre, 2019

    ESTA SERIE ES MAGNIFICA, MIL GRACIAS Y POR FAVOR SUBAN LAS TEMPORADAS PASADAS