×

¿Problemas para descargar con Mozilla, EDGE? Deshabilita la opción "Abrir vinculos en una pestaña nueva" tal como lo muestra ésta imagen.

The Deuce (2018) Temporada 2 1080p Latino

1.190 vistas

Información de The Deuce (2018) Temporada 2 1080p Latino

Datos de la película

  • Calidad: 1080p
  • Audio: Español Latino DTS 2.0 BLURAY - Ingles DTS 5.1 BLURAY
  • Subtitulos: Español Latino PGS - Ingles PGS
  • Resolución: 1920x1080
  • Formato: MKV
  • Codec: H.264
  • Encoder: cinemaniahdd
  • Mediainfo: Clic para Mostrar Datos Ver
  • The Deuce T02E01 1080p Latino.mkv
    Format                      : Matroska
    Format version              : Version 4
    File size                   : 4.70 GiB
    Duration                    : 58 min 35 s
    Overall bit rate            : 11.5 Mb/s
    Movie name                  : The Deuce T02E01 - CinemaniaHDD.Net
    Encoded date                : UTC 2019-10-02 23:09:55
    Writing application         : mkvmerge v35.0.0 ('All The Love In The World') 64-bit
    Writing library             : libebml v1.3.9 + libmatroska v1.5.2

    Video
    ID                          : 1
    Format                      : AVC
    Format/Info                 : Advanced Video Codec
    Format profile              : High@L4.1
    Format settings             : CABAC / 4 Ref Frames
    Format settings, CABAC      : Yes
    Format settings, ReFrames   : 4 frames
    Codec ID                    : V_MPEG4/ISO/AVC
    Duration                    : 58 min 35 s
    Bit rate                    : 9 167 kb/s
    Width                       : 1 920 pixels
    Height                      : 1 080 pixels
    Display aspect ratio        : 16:9
    Frame rate mode             : Constant
    Frame rate                  : 23.976 (24000/1001) FPS
    Color space                 : YUV
    Chroma subsampling          : 4:2:0
    Bit depth                   : 8 bits
    Scan type                   : Progressive
    Bits/(Pixel*Frame)          : 0.184
    Stream size                 : 3.75 GiB (80%)
    Title                       : CinemaniaHDD
    Writing library             : x264 core 157 r2935 545de2f
    Encoding settings           : cabac=1 / ref=4 / deblock=1:-3:-3 / analyse=0x3:0x113 / me=umh / subme=8 / psy=1 / psy_rd=1.00:0.00 / mixed_ref=1 / me_range=32 / chroma_me=1 / trellis=1 / 8x8dct=1 / cqm=0 / deadzone=21,11 / fast_pskip=1 / chroma_qp_offset=-2 / threads=24 / lookahead_threads=4 / sliced_threads=0 / nr=0 / decimate=1 / interlaced=0 / bluray_compat=0 / constrained_intra=0 / bframes=3 / b_pyramid=2 / b_adapt=2 / b_bias=0 / direct=3 / weightb=1 / open_gop=0 / weightp=2 / keyint=240 / keyint_min=24 / scenecut=40 / intra_refresh=0 / rc_lookahead=50 / rc=2pass / mbtree=1 / bitrate=9167 / ratetol=1.0 / qcomp=0.60 / qpmin=0 / qpmax=69 / qpstep=4 / cplxblur=20.0 / qblur=0.5 / ip_ratio=1.40 / aq=3:0.80
    Default                     : Yes
    Forced                      : No

    Audio #1
    ID                          : 2
    Format                      : DTS
    Format/Info                 : Digital Theater Systems
    Codec ID                    : A_DTS
    Duration                    : 58 min 35 s
    Bit rate mode               : Constant
    Bit rate                    : 768 kb/s
    Channel(s)                  : 2 channels
    Channel layout              : Lt Rt
    Sampling rate               : 48.0 kHz
    Frame rate                  : 93.750 FPS (512 SPF)
    Bit depth                   : 24 bits
    Compression mode            : Lossy
    Stream size                 : 322 MiB (7%)
    Title                       : Español latino [CinemaniaHDD]
    Language                    : Spanish
    Default                     : Yes
    Forced                      : No

    Audio #2
    ID                          : 3
    Format                      : DTS
    Format/Info                 : Digital Theater Systems
    Codec ID                    : A_DTS
    Duration                    : 58 min 35 s
    Bit rate mode               : Constant
    Bit rate                    : 1 509 kb/s
    Channel(s)                  : 6 channels
    Channel layout              : C L R Ls Rs LFE
    Sampling rate               : 48.0 kHz
    Frame rate                  : 93.750 FPS (512 SPF)
    Bit depth                   : 24 bits
    Compression mode            : Lossy
    Stream size                 : 632 MiB (13%)
    Title                       : Inglés [CinemaniaHDD]
    Language                    : English
    Default                     : No
    Forced                      : No

    Text #1
    ID                          : 4
    Format                      : PGS
    Muxing mode                 : zlib
    Codec ID                    : S_HDMV/PGS
    Codec ID/Info               : Picture based subtitle format used on BDs/HD-DVDs
    Duration                    : 57 min 15 s
    Bit rate                    : 50.6 kb/s
    Count of elements           : 2128
    Stream size                 : 20.7 MiB (0%)
    Title                       : Inglés [CinemaniaHDD]
    Language                    : English
    Default                     : No
    Forced                      : No

    Text #2
    ID                          : 5
    Format                      : PGS
    Muxing mode                 : zlib
    Codec ID                    : S_HDMV/PGS
    Codec ID/Info               : Picture based subtitle format used on BDs/HD-DVDs
    Duration                    : 56 min 33 s
    Bit rate                    : 42.8 kb/s
    Count of elements           : 1840
    Stream size                 : 17.3 MiB (0%)
    Title                       : Español latino [CinemaniaHDD]
    Language                    : Spanish
    Default                     : No
    Forced                      : No

     

  • Peso: 4.70 GiB C/U

Sinopsis

Serie de TV (2017-Actualidad). ‘The Deuce’ sigue la historia de la legalización y consolidación de la industria del porno en Times Square desde los inicios de los años 70 hasta mediados de los 80, explorando un turbulento mundo donde la aparición del SIDA, la expansión de la cocaína y el emergente mercado inmobiliario sacudieron a la ciudad entera.

Ficha técnica

Video trailer de la película

Enlaces de descarga

Rip de Bluray

Descargar The Deuce (2018) Temporada 2 1080p Latino




Aportes de DPeliculasHDmega la pass es:dpeliculashdmega.org Aportes de CinemaniaHD la pass es:cinemaniahdd.com
Guardado en : Drama , HBO , HD 1080p , Series

Películas relacionadas

The Deuce (2018) Temporada 2 1080p Latino pelicula full hd, The Deuce (2018) Temporada 2 1080p Latino mega latino, The Deuce (2018) Temporada 2 1080p Latino 4k latino, The Deuce (2018) Temporada 2 1080p Latino pelicula completa, The Deuce (2018) Temporada 2 1080p Latino descargar gratis, descargar The Deuce (2018) Temporada 2 1080p Latino pelicula latino, The Deuce (2018) Temporada 2 1080p Latino 1 link mega, The Deuce (2018) Temporada 2 1080p Latino 1 link google drive, The Deuce (2018) Temporada 2 1080p Latino hd 1080p latino.
Comentarios 3
  • sabbath666 - 14 octubre, 2019

    Gracias por el aporte, muy buena serie.

  • cogecuatorianas - 11 octubre, 2019

    gracias por el aporte

  • sabbath66 - 11 octubre, 2019

    Gracias por el aporte la serie esta muy buena.